Genesis – From Genesis To Revelation (Limited Edition)




Artist: Genesis
Year: 1969/1993
Genre: Rock
Notes: Discogs
Add. Notes: Limited Edition
Cover incl.: Yes
Encoder: FLAC
Bitrate: ~800 kBit/s (44.1 kHz/16 Bit/s)
Log & Cue incl.: Yes
Size: 380 MB
Password: “slam” (without ” “)


All Downloads/Hosters are compatible

Download 1
KatFile.com
Turbobit.net
FileFactory.com
Rapidgator.net
Download 2
KatFile.com
Turbobit.net
FileFactory.com
Rapidgator.net

Tracklist:

1 - Where The Sour Turns To Sweet - 3:16
2 - In The Beginning - 3:44
3 - Fireside Song - 4:18
4 - The Serpent - 4:38
5 - Am I Very Wrong? - 3:31
6 - In The Wilderness - 3:28
7 - The Conqueror - 3:40
8 - In Hiding - 2:41
9 - One Day - 3:21
10 - Window - 3:33
11 - In Limbo - 3:30
12 - Silent Sun - 2:13
13 - A Place To Call My Own - 1:58
14 - A Winter's Tale - 3:31
15 - One Eyed Hound - 2:31
16 - That's Me - 2:38
17 - The Silent Sun (Mono Single Version) - 2:12

EAC-Log, CUE-Sheed & NFO:

Click to open spoiler
Exact Audio Copy V0.99 prebeta 5 from 4. May 2009

EAC extraction logfile from 16. January 2012, 17:43

Genesis / From Genesis To Revelation …MCCD 133.Music Club

Used drive : PLEXTOR CD-R PREMIUM2 Adapter: 0 ID: 1

Read mode : Secure
Utilize accurate stream : Yes
Defeat audio cache : Yes
Make use of C2 pointers : No

Read offset correction : 30
Overread into Lead-In and Lead-Out : No
Fill up missing offset samples with silence : Yes
Delete leading and trailing silent blocks : No
Null samples used in CRC calculations : Yes
Used interface : Installed external ASPI interface

Used output format : User Defined Encoder
Selected bitrate : 768 kBit/s
Quality : High
Add ID3 tag : No
Command line compressor : C:\Program Files\Exact Audio Copy\FLAC\FLAC.EXE
Additional command line options : -8 -V %s

TOC of the extracted CD

Track | Start | Length | Start sector | End sector
———————————————————
1 | 0:00.32 | 3:16.13 | 32 | 14744
2 | 3:16.45 | 3:44.30 | 14745 | 31574
3 | 7:01.00 | 4:18.67 | 31575 | 50991
4 | 11:19.67 | 4:38.63 | 50992 | 71904
5 | 15:58.55 | 3:31.67 | 71905 | 87796
6 | 19:30.47 | 3:28.60 | 87797 | 103456
7 | 22:59.32 | 3:40.25 | 103457 | 119981
8 | 26:39.57 | 2:41.48 | 119982 | 132104
9 | 29:21.30 | 3:21.17 | 132105 | 147196
10 | 32:42.47 | 3:33.55 | 147197 | 163226
11 | 36:16.27 | 3:30.08 | 163227 | 178984
12 | 39:46.35 | 2:13.45 | 178985 | 189004
13 | 42:00.05 | 1:58.72 | 189005 | 197926
14 | 43:59.02 | 3:31.48 | 197927 | 213799
15 | 47:30.50 | 2:31.60 | 213800 | 225184
16 | 50:02.35 | 2:38.30 | 225185 | 237064
17 | 52:40.65 | 2:12.55 | 237065 | 247019

Range status and errors

Selected range

Filename H:\Temp\Genesis\From Genesis To Revelation.1969.MCCD 133.Music Club\Genesis – From Genesis To Revelation …MCCD 133.Music Club.wav

Peak level 94.1 %
Range quality 100.0 %
Test CRC E1F553B3
Copy CRC E1F553B3
Copy OK

No errors occurred

AccurateRip summary

Track 1 accurately ripped (confidence 9) [E21ABF52]
Track 2 accurately ripped (confidence 9) [A784AA45]
Track 3 accurately ripped (confidence 9) [C4B3C2AD]
Track 4 accurately ripped (confidence 9) [9A65E181]
Track 5 accurately ripped (confidence 9) [D96D1EF3]
Track 6 accurately ripped (confidence 9) [EB9344A5]
Track 7 accurately ripped (confidence 9) [564DA9B7]
Track 8 accurately ripped (confidence 9) [6C94A2BC]
Track 9 accurately ripped (confidence 9) [31D97A30]
Track 10 accurately ripped (confidence 9) [9867F33C]
Track 11 accurately ripped (confidence 9) [4A714EA2]
Track 12 accurately ripped (confidence 9) [1CDD9231]
Track 13 accurately ripped (confidence 9) [1D207E55]
Track 14 accurately ripped (confidence 9) [255C2E38]
Track 15 accurately ripped (confidence 9) [8AF0675D]
Track 16 accurately ripped (confidence 9) [42B61F2B]
Track 17 accurately ripped (confidence 9) [AE4E0D64]

All tracks accurately ripped

End of status report

REM GENRE “Progressive Rock”
REM DATE 1969
REM DISCID E30CDD11
REM COMMENT “ExactAudioCopy v0.99pb5”
PERFORMER “Genesis”
TITLE “From Genesis To Revelation …MCCD 133.Music Club”
FILE “Genesis – From Genesis To Revelation …MCCD 133.Music Club.flac” WAVE
TRACK 01 AUDIO
TITLE “Where The Sour Turns To Sweet”
PERFORMER “Genesis”
INDEX 00 00:00:00
INDEX 01 00:00:32
TRACK 02 AUDIO
TITLE “In The Beginning”
PERFORMER “Genesis”
INDEX 01 03:16:45
TRACK 03 AUDIO
TITLE “Fireside Song”
PERFORMER “Genesis”
INDEX 01 07:01:00
TRACK 04 AUDIO
TITLE “The Serpent”
PERFORMER “Genesis”
INDEX 01 11:19:67
TRACK 05 AUDIO
TITLE “Am I Very Wrong ?”
PERFORMER “Genesis”
INDEX 01 15:58:55
TRACK 06 AUDIO
TITLE “In The Wilderness”
PERFORMER “Genesis”
INDEX 01 19:30:47
TRACK 07 AUDIO
TITLE “The Conqueror”
PERFORMER “Genesis”
INDEX 00 22:59:30
INDEX 01 22:59:32
TRACK 08 AUDIO
TITLE “In Hiding”
PERFORMER “Genesis”
INDEX 01 26:39:57
TRACK 09 AUDIO
TITLE “One Day”
PERFORMER “Genesis”
INDEX 00 29:19:17
INDEX 01 29:21:30
TRACK 10 AUDIO
TITLE “Window”
PERFORMER “Genesis”
INDEX 01 32:42:47
TRACK 11 AUDIO
TITLE “In Limbo”
PERFORMER “Genesis”
INDEX 01 36:16:27
TRACK 12 AUDIO
TITLE “Silent Sun”
PERFORMER “Genesis”
INDEX 01 39:46:35
TRACK 13 AUDIO
TITLE “A Place To Call My Own”
PERFORMER “Genesis”
INDEX 00 42:00:02
INDEX 01 42:00:05
TRACK 14 AUDIO
TITLE “A Winter’s Tale”
PERFORMER “Genesis”
INDEX 00 43:59:00
INDEX 01 43:59:02
TRACK 15 AUDIO
TITLE “One Eyed Hound”
PERFORMER “Genesis”
INDEX 00 47:28:50
INDEX 01 47:30:50
TRACK 16 AUDIO
TITLE “That’s Me”
PERFORMER “Genesis”
INDEX 00 50:02:00
INDEX 01 50:02:35
TRACK 17 AUDIO
TITLE “The Silent Sun (mono single version)”
PERFORMER “Genesis”
INDEX 00 52:40:07
INDEX 01 52:40:65


Leave a Reply

Your email address will not be published. Required fields are marked *

This site uses Akismet to reduce spam. Learn how your comment data is processed.