Genesis – From Genesis To Revelation (Japanese Edition)




Artist: Genesis
Year: 1969/1990
Genre: Rock
Notes: Discogs
Add. Notes: Japanese Edition
Cover incl.: Yes
Encoder: FLAC
Bitrate: ~800 kBit/s (44.1 kHz/16 Bit/s)
Log & Cue incl.: Yes
Size: 381,34 MB
Password: “slam” (without ” “)


All Downloads/Hosters are compatible

Download 1
NitroFlare.com
KatFile.com
Turbobit.net
Rapidgator.net
UploadRar.com
Download 2
NitroFlare.com
KatFile.com
Turbobit.net
Rapidgator.net
UploadRar.com

Tracklist:

1  Where The Sour Turns To Sweet  
2  In The Beginning  
3  Fireside Song  
4  The Serpent  
5  Am I Very Wrong  
6  In The Wilderness  
7  The Conqueror  
8  In Hiding  
9  One Day  
10  Window  
11  In Limbo  
12  Silent Sun  
13  A Place To Call My Own  
14  The Silent Sun  
15  That's Me  
16  A Winter's Tale  
17  One Eyed Hound

EAC-Log, CUE-Sheed & NFO:

Click to open spoiler
Exact Audio Copy V0.99 prebeta 5 from 4. May 2009

EAC extraction logfile from 15. January 2012, 18:09

Genesis / From Genesis To Revelation.TECP-25471.Japan

Used drive : PLEXTOR CD-R PREMIUM2 Adapter: 0 ID: 1

Read mode : Secure
Utilize accurate stream : Yes
Defeat audio cache : Yes
Make use of C2 pointers : No

Read offset correction : 30
Overread into Lead-In and Lead-Out : No
Fill up missing offset samples with silence : Yes
Delete leading and trailing silent blocks : No
Null samples used in CRC calculations : Yes
Used interface : Installed external ASPI interface

Used output format : User Defined Encoder
Selected bitrate : 768 kBit/s
Quality : High
Add ID3 tag : No
Command line compressor : C:\Program Files\Exact Audio Copy\FLAC\FLAC.EXE
Additional command line options : -8 -V %s

TOC of the extracted CD

Track | Start | Length | Start sector | End sector
———————————————————
1 | 0:00.37 | 3:14.70 | 37 | 14656
2 | 3:15.32 | 3:45.35 | 14657 | 31566
3 | 7:00.67 | 4:18.58 | 31567 | 50974
4 | 11:19.50 | 4:38.67 | 50975 | 71891
5 | 15:58.42 | 3:31.63 | 71892 | 87779
6 | 19:30.30 | 3:30.02 | 87780 | 103531
7 | 23:00.32 | 3:40.38 | 103532 | 120069
8 | 26:40.70 | 2:37.60 | 120070 | 131904
9 | 29:18.55 | 3:21.45 | 131905 | 147024
10 | 32:40.25 | 3:33.57 | 147025 | 163056
11 | 36:14.07 | 3:30.08 | 163057 | 178814
12 | 39:44.15 | 2:13.47 | 178815 | 188836
13 | 41:57.62 | 2:00.25 | 188837 | 197861
14 | 43:58.12 | 2:15.13 | 197862 | 207999
15 | 46:13.25 | 2:41.32 | 208000 | 220106
16 | 48:54.57 | 3:31.45 | 220107 | 235976
17 | 52:26.27 | 2:32.35 | 235977 | 247411

Range status and errors

Selected range

Filename H:\Temp\Genesis\From Genesis To Revelation.1969.TECP-25471.Teichiku.Japan\Genesis – From Genesis To Revelation.TECP-25471.Japan.wav

Peak level 93.2 %
Range quality 100.0 %
Test CRC 4B4D0319
Copy CRC 4B4D0319
Copy OK

No errors occurred

AccurateRip summary

Track 1 accurately ripped (confidence 1) [4F9A6393]
Track 2 cannot be verified as accurate (confidence 1) [0DC76C10], AccurateRip returned [9084FD68]
Track 3 accurately ripped (confidence 1) [5D44F7D3]
Track 4 accurately ripped (confidence 1) [79DA3FF7]
Track 5 accurately ripped (confidence 1) [72BC9BB9]
Track 6 accurately ripped (confidence 1) [9594328B]
Track 7 accurately ripped (confidence 1) [1E241AFC]
Track 8 accurately ripped (confidence 1) [8F2134BA]
Track 9 accurately ripped (confidence 1) [B5BF5071]
Track 10 accurately ripped (confidence 1) [63539FC1]
Track 11 accurately ripped (confidence 1) [48B9E377]
Track 12 accurately ripped (confidence 1) [8EC41042]
Track 13 accurately ripped (confidence 1) [8A3A0F04]
Track 14 accurately ripped (confidence 1) [8BFB8596]
Track 15 accurately ripped (confidence 1) [1336470F]
Track 16 accurately ripped (confidence 1) [09C53C3F]
Track 17 accurately ripped (confidence 1) [859EC0EE]

16 track(s) accurately ripped
1 track(s) could not be verified as accurate

Some tracks could not be verified as accurate

End of status report

REM GENRE “Progressive Rock”
REM DATE 1969
REM DISCID F40CE211
REM COMMENT “ExactAudioCopy v0.99pb5”
PERFORMER “Genesis”
TITLE “From Genesis To Revelation.TECP-25471.Japan”
FILE “Genesis – From Genesis To Revelation.TECP-25471.Japan.flac” WAVE
TRACK 01 AUDIO
TITLE “Where The Sour Turns Sweet”
PERFORMER “Genesis”
INDEX 00 00:00:00
INDEX 01 00:00:37
TRACK 02 AUDIO
TITLE “In The Beginning”
PERFORMER “Genesis”
INDEX 01 03:15:32
TRACK 03 AUDIO
TITLE “Fireside Song”
PERFORMER “Genesis”
INDEX 01 07:00:67
TRACK 04 AUDIO
TITLE “The Serpent”
PERFORMER “Genesis”
INDEX 01 11:19:50
TRACK 05 AUDIO
TITLE “Am I Very Wrong”
PERFORMER “Genesis”
INDEX 01 15:58:42
TRACK 06 AUDIO
TITLE “In The Wilderness”
PERFORMER “Genesis”
INDEX 01 19:30:30
TRACK 07 AUDIO
TITLE “The Conqueror”
PERFORMER “Genesis”
INDEX 01 23:00:32
TRACK 08 AUDIO
TITLE “In Hiding”
PERFORMER “Genesis”
INDEX 01 26:40:70
TRACK 09 AUDIO
TITLE “One Day”
PERFORMER “Genesis”
INDEX 01 29:18:55
TRACK 10 AUDIO
TITLE “Window”
PERFORMER “Genesis”
INDEX 01 32:40:25
TRACK 11 AUDIO
TITLE “In Limbo”
PERFORMER “Genesis”
INDEX 01 36:14:07
TRACK 12 AUDIO
TITLE “The Silent Sun”
PERFORMER “Genesis”
INDEX 01 39:44:15
TRACK 13 AUDIO
TITLE “A Place To Call My Own”
PERFORMER “Genesis”
INDEX 01 41:57:62
TRACK 14 AUDIO
TITLE “The Silent Sun”
PERFORMER “Genesis”
INDEX 00 43:57:13
INDEX 01 43:58:12
TRACK 15 AUDIO
TITLE “That’s Me”
PERFORMER “Genesis”
INDEX 00 46:11:31
INDEX 01 46:13:25
TRACK 16 AUDIO
TITLE “A Winter’s Tale”
PERFORMER “Genesis”
INDEX 00 48:52:61
INDEX 01 48:54:57
TRACK 17 AUDIO
TITLE “One Eyed Hound”
PERFORMER “Genesis”
INDEX 00 52:24:27
INDEX 01 52:26:27


Leave a Reply

Your email address will not be published. Required fields are marked *

Enter the text from the image below
 

This site uses Akismet to reduce spam. Learn how your comment data is processed.