Genesis – Foxtrot




No Cover available

Artist: Genesis
Year: 1972/1985
Genre: Rock
Notes: Discogs
Add. Notes: Reissue
Watch Songs on: YouTube
Cover incl.: Yes
Encoder: FLAC
Bitrate: ~800 kBit/s (44.1 kHz/16 Bit/s)
Log & Cue incl.: Yes
Size: 319,2 MB
Password: “slam” (without ” “)


All Downloads/Hosters are compatible

Download 1
KatFile.com
Turbobit.net
FileFactory.com
Rapidgator.net
Download 2
KatFile.com
Turbobit.net
FileFactory.com
Rapidgator.net

Tracklist:

1. Watcher Of The Skies  7:19
2. Time Table  4:42
3. Get 'Em Out By Friday  8:35
4. Can-Utility And The Coastliners  5:43
5. Horizon's  1:39
6. Supper's Ready  (22:53)

EAC-Log, CUE-Sheed & NFO:

Click to open spoiler
Exact Audio Copy V1.0 beta 2 from 29. April 2011

EAC extraction logfile from 30. November 2011, 1:19

Genesis / Foxtrot (CASCD 1058)

Used drive : HL-DT-STDVDRW GSA-S10N Adapter: 0 ID: 1

Read mode : Secure
Utilize accurate stream : Yes
Defeat audio cache : Yes
Make use of C2 pointers : No

Read offset correction : 667
Overread into Lead-In and Lead-Out : No
Fill up missing offset samples with silence : Yes
Delete leading and trailing silent blocks : No
Null samples used in CRC calculations : Yes
Used interface : Native Win32 interface for Win NT & 2000

Used output format : User Defined Encoder
Selected bitrate : 768 kBit/s
Quality : High
Add ID3 tag : No
Command line compressor : C:\Program Files\Exact Audio Copy 1\Flac\flac.exe
Additional command line options : -V -8 %source%

TOC of the extracted CD

Track | Start | Length | Start sector | End sector
———————————————————
1 | 0:00.00 | 7:24.05 | 0 | 33304
2 | 7:24.05 | 4:48.15 | 33305 | 54919
3 | 12:12.20 | 8:38.10 | 54920 | 93779
4 | 20:50.30 | 5:47.45 | 93780 | 119849
5 | 26:38.00 | 1:43.62 | 119850 | 127636
6 | 28:21.62 | 22:58.13 | 127637 | 230999

Range status and errors

Selected range

Filename C:\Olaf der Weisse\Genesis . 1972 . Foxtrot (CASCD 1058)\Genesis – Foxtrot (CASCD 1058).wav

Peak level 100.0 %
Extraction speed 3.9 X
Range quality 99.9 %
Test CRC 0613B434
Copy CRC 0613B434
Copy OK

No errors occurred

AccurateRip summary

Track 1 accurately ripped (confidence 5) [DA809CE7] (AR v2)
Track 2 accurately ripped (confidence 5) [5F850338] (AR v2)
Track 3 accurately ripped (confidence 5) [F0C312D3] (AR v2)
Track 4 accurately ripped (confidence 5) [0676383F] (AR v2)
Track 5 accurately ripped (confidence 5) [E9C7D921] (AR v2)
Track 6 accurately ripped (confidence 6) [66EBE88A] (AR v2)

All tracks accurately ripped

End of status report

==== Log checksum BCB9E240974893E5CB2473609EDC73596C7C96D832139C01AB1B3DE3EF3D4BAE ====

REM GENRE “Progressive Rock”
REM DATE 1972
REM DISCID 3A0C0806
REM COMMENT “ExactAudioCopy v1.0b2”
PERFORMER “Genesis”
TITLE “Foxtrot (CASCD 1058)”
FILE “Genesis – Foxtrot (CASCD 1058).flac” WAVE
TRACK 01 AUDIO
TITLE “Watcher Of The Skies”
PERFORMER “Genesis”
INDEX 01 00:00:00
TRACK 02 AUDIO
TITLE “Time Table”
PERFORMER “Genesis”
INDEX 00 07:23:07
INDEX 01 07:24:05
TRACK 03 AUDIO
TITLE “Get ‘Em Out by Friday”
PERFORMER “Genesis”
INDEX 00 12:11:50
INDEX 01 12:12:20
TRACK 04 AUDIO
TITLE “Can-Utility And The Coastliners”
PERFORMER “Genesis”
INDEX 00 20:49:67
INDEX 01 20:50:30
TRACK 05 AUDIO
TITLE “Horizon’s”
PERFORMER “Genesis”
INDEX 00 26:36:40
INDEX 01 26:38:00
TRACK 06 AUDIO
TITLE “Supper’s Ready”
PERFORMER “Genesis”
INDEX 00 28:18:67
INDEX 01 28:21:62
INDEX 02 32:09:57
INDEX 03 34:06:40
INDEX 04 38:05:55
INDEX 05 39:28:25
INDEX 06 42:40:65
INDEX 07 49:17:17


Leave a Reply

Your email address will not be published. Required fields are marked *

This site uses Akismet to reduce spam. Learn how your comment data is processed.