Genesis – Foxtrot (Japanese Edition)




Artist: Genesis
Year: 1972/1991
Genre: Rock
Notes: Discogs
Add. Notes: Japanese Edition
Cover incl.: Yes
Encoder: FLAC
Bitrate: ~800 kBit/s (44.1 kHz/16 Bit/s)
Log & Cue incl.: Yes
Size: 381,9 MB
Password: “slam” (without ” “)


All Downloads/Hosters are compatible

Download 1
NitroFlare.com
KatFile.com
Turbobit.net
Rapidgator.net
UploadRar.com
Download 2
NitroFlare.com
KatFile.com
Turbobit.net
Rapidgator.net
UploadRar.com

Tracklist:

1 - Watcher Of The Skies - 7:19
2 - Time Table - 4:42
3 - Get 'Em Out By Friday - 8:35
4 - Can-Utility And The Coastliners - 5:43
5 - Horizon's - 1:39
Supper's Ready - 22:53
6.1 - Lover's Leap - 
6.2 - The Guaranteed Eternal Sanctuary Man - 
6.3 - Ikhnaton And Itsacon And Their Band Of Merry 
Men - 
6.4 - How Dare I Be So Beautiful? - 
6.5 - Willow Farm - 
6.6 - Apocalypse In 9/8 (Co-Starring The Delicious 
Talents Of Gabble Ratchet) - 
6.7 - As Sure As Eggs Is Eggs (Aching Men's Feet)

EAC-Log, CUE-Sheed & NFO:

Click to open spoiler
Exact Audio Copy V1.0 beta 3 from 29. August 2011

EAC extraction logfile from 9. May 2015, 18:32

Genesis / Foxtrot

Used drive : PLEXTOR DVDR PX-L890SA Adapter: 3 ID: 1

Read mode : Secure
Utilize accurate stream : Yes
Defeat audio cache : Yes
Make use of C2 pointers : No

Read offset correction : 6
Overread into Lead-In and Lead-Out : No
Fill up missing offset samples with silence : Yes
Delete leading and trailing silent blocks : No
Null samples used in CRC calculations : Yes
Used interface : Native Win32 interface for Win NT & 2000

Used output format : User Defined Encoder
Selected bitrate : 768 kBit/s
Quality : High
Add ID3 tag : No
Command line compressor : C:\Program Files (x86)\Exact Audio Copy\Flac\flac.exe
Additional command line options : -V -8 -T “Date=%year%” -T “Genre=%genre%” %source%

TOC of the extracted CD

Track | Start | Length | Start sector | End sector
———————————————————
1 | 0:00.37 | 7:24.70 | 37 | 33406
2 | 7:25.32 | 4:48.20 | 33407 | 55026
3 | 12:13.52 | 8:38.05 | 55027 | 93881
4 | 20:51.57 | 5:47.48 | 93882 | 119954
5 | 26:39.30 | 1:43.55 | 119955 | 127734
6 | 28:23.10 | 22:59.42 | 127735 | 231201

Range status and errors

Selected range

Filename H:\MUSIC\Genesis\1972. Genesis – Foxtrot (Charisma VJCP-23115, Japan)\Genesis – Foxtrot.wav

Peak level 83.1 %
Extraction speed 9.1 X
Range quality 100.0 %
Test CRC 45646EC4
Copy CRC 45646EC4
Copy OK

No errors occurred

AccurateRip summary

Track 1 accurately ripped (confidence 3) [74C78722] (AR v1)
Track 2 accurately ripped (confidence 3) [10EE04A3] (AR v1)
Track 3 accurately ripped (confidence 3) [D181F928] (AR v1)
Track 4 accurately ripped (confidence 3) [3639C359] (AR v1)
Track 5 accurately ripped (confidence 2) [AD525463] (AR v1)
Track 6 accurately ripped (confidence 3) [08531653] (AR v1)

All tracks accurately ripped

End of status report

==== Log checksum 1EA8A31658BA1B59B66D688B63C36285C95722C4FC0D19B72FA97927AD64C734 ====

REM GENRE “Progressive Rock”
REM DATE 1972
REM DISCID 400C0A06
REM COMMENT “ExactAudioCopy v1.0b3”
PERFORMER “Genesis”
TITLE “Foxtrot”
FILE “Genesis – Foxtrot.flac” WAVE
TRACK 01 AUDIO
TITLE “Watcher Of The Skies”
PERFORMER “Genesis”
INDEX 00 00:00:00
INDEX 01 00:00:37
TRACK 02 AUDIO
TITLE “Time Table”
PERFORMER “Genesis”
INDEX 00 07:22:67
INDEX 01 07:25:32
TRACK 03 AUDIO
TITLE “Get ’em Out By Friday”
PERFORMER “Genesis”
INDEX 00 12:10:25
INDEX 01 12:13:52
TRACK 04 AUDIO
TITLE “Can-utility And The Coastliners”
PERFORMER “Genesis”
INDEX 00 20:50:15
INDEX 01 20:51:57
TRACK 05 AUDIO
TITLE “Horizons”
PERFORMER “Genesis”
INDEX 00 26:37:45
INDEX 01 26:39:30
TRACK 06 AUDIO
TITLE “Supper’s Ready”
PERFORMER “Genesis”
INDEX 00 28:19:45
INDEX 01 28:23:10
INDEX 02 32:11:17
INDEX 03 34:07:72
INDEX 04 38:03:57
INDEX 05 39:29:55
INDEX 06 42:41:10
INDEX 07 49:18:32


Leave a Reply

Your email address will not be published. Required fields are marked *

This site uses Akismet to reduce spam. Learn how your comment data is processed.