Genesis – Congo




Artist: Genesis
Year: 1997
Genre: Rock
Notes: Discogs
Add. Notes:
Cover incl.: No
Encoder: FLAC
Bitrate: ~900 kBit/s (44.1 kHz/16 Bit/s)
Log & Cue incl.: Yes
Size: 95,98 MB
Password: “slam” (without ” “)


All Downloads/Hosters are compatible

Download 1
Turbobit.net
Rapidgator.net
UploadEver.com
JustUpload.io
UsersDrive.com
Download 2
Turbobit.net
Rapidgator.net
UploadEver.com
JustUpload.io
UsersDrive.com
Download 3
Turbobit.net
Rapidgator.net
UploadEver.com
JustUpload.io
UsersDrive.com

Tracklist:

1 - Congo (Edit) - 3:13
2 - Papa He Said - 4:07
3 - Banjo Man - 4:20

EAC-Log, CUE-Sheed & NFO:

Click to open spoiler
Exact Audio Copy V1.0 beta 3 from 29. August 2011

EAC extraction logfile from 5. March 2014, 2:00

Genesis / Congo (7243 8 94520 2 0)

Used drive : HL-DT-STDVDRW GSA-S10N Adapter: 0 ID: 1

Read mode : Secure
Utilize accurate stream : Yes
Defeat audio cache : Yes
Make use of C2 pointers : No

Read offset correction : 667
Overread into Lead-In and Lead-Out : No
Fill up missing offset samples with silence : Yes
Delete leading and trailing silent blocks : No
Null samples used in CRC calculations : Yes
Used interface : Native Win32 interface for Win NT & 2000

Used output format : User Defined Encoder
Selected bitrate : 768 kBit/s
Quality : High
Add ID3 tag : No
Command line compressor : C:\Program Files\Exact Audio Copy 1\Flac\flac.exe
Additional command line options : -V -8 %source%

TOC of the extracted CD

Track | Start | Length | Start sector | End sector
———————————————————
1 | 0:00.00 | 3:14.40 | 0 | 14589
2 | 3:14.40 | 4:09.12 | 14590 | 33276
3 | 7:23.52 | 4:21.48 | 33277 | 52899

Range status and errors

Selected range

Filename C:\OdW\1997 – Congo (7243 8 94520 2 0)\Genesis – Congo (7243 8 94520 2 0).wav

Peak level 100.0 %
Extraction speed 1.7 X
Range quality 100.0 %
Test CRC A0EC3C3D
Copy CRC A0EC3C3D
Copy OK

No errors occurred

AccurateRip summary

Track 1 accurately ripped (confidence 10) [0EAB9504] (AR v2)
Track 2 accurately ripped (confidence 11) [2973757D] (AR v2)
Track 3 accurately ripped (confidence 11) [69DA015C] (AR v2)

All tracks accurately ripped

End of status report

==== Log checksum 80A8E976633923EAC45FA2D4F8B8D2707690309AEC749E71089B5A5AD4324A43 ====

REM GENRE “Progressive Rock”
REM DATE 1997
REM DISCID 1F02C103
REM COMMENT “ExactAudioCopy v1.0b3”
PERFORMER “Genesis”
TITLE “Congo (7243 8 94520 2 0)”
FILE “Genesis – Congo (7243 8 94520 2 0).flac” WAVE
TRACK 01 AUDIO
TITLE “Congo (Edit)”
PERFORMER “Genesis”
INDEX 01 00:00:00
TRACK 02 AUDIO
TITLE “Papa He Said”
PERFORMER “Genesis”
INDEX 00 03:12:57
INDEX 01 03:14:40
TRACK 03 AUDIO
TITLE “Banjo Man”
PERFORMER “Genesis”
INDEX 00 07:22:42
INDEX 01 07:23:52

Leave a Reply

Your email address will not be published. Required fields are marked *

This site uses Akismet to reduce spam. Learn how your comment data is processed.