Genesis – Calling All Stations (Club Edition)




Genesis – Calling All Stations

Artist: Genesis
Year: 1997
Genre: Rock
Notes: Discogs
Add. Notes: Club Edition
Watch Songs on: YouTube
Cover incl.: Yes
Encoder: FLAC
Bitrate: ~1000 kBit/s (44.1 kHz/16 Bit/s)
Log & Cue incl.: Yes
Size: 544,8 MB
Password: “slam” (without ” “)


All Downloads/Hosters are compatible

Download 1
KatFile.com
Turbobit.net
FileFactory.com
Rapidgator.net
Download 2
KatFile.com
Turbobit.net
FileFactory.com
Rapidgator.net

Tracklist:

1 - Calling All Stations - 5:46
2 - Congo - 4:52
3 - Shipwrecked - 4:24
4 - Alien Afternoon - 7:52
5 - Not About Us - 4:39
6 - If That's What You Need - 5:13
7 - The Dividing Line - 7:46
8 - Uncertain Weather - 5:30
9 - Small Talk - 5:03
10 - There Must Be Some Other Way - 7:55
11 - One Man's Fool - 8:46

EAC-Log, CUE-Sheed & NFO:

Click to open spoiler
Exact Audio Copy V1.0 beta 3 from 29. August 2011

EAC extraction logfile from 14. July 2014, 18:00

Genesis / Calling All Stations (A2 83037)

Used drive : HL-DT-STDVDRAM GE20NU11 Adapter: 0 ID: 1

Read mode : Secure
Utilize accurate stream : Yes
Defeat audio cache : Yes
Make use of C2 pointers : No

Read offset correction : 667
Overread into Lead-In and Lead-Out : No
Fill up missing offset samples with silence : Yes
Delete leading and trailing silent blocks : No
Null samples used in CRC calculations : Yes
Used interface : Native Win32 interface for Win NT & 2000

Used output format : User Defined Encoder
Selected bitrate : 896 kBit/s
Quality : High
Add ID3 tag : No
Command line compressor : C:\Program Files\EAC 3\Exact Audio Copy\Flac\flac.exe
Additional command line options : -V -8 %source%

TOC of the extracted CD

Track | Start | Length | Start sector | End sector
———————————————————
1 | 0:00.00 | 5:43.17 | 0 | 25741
2 | 5:43.17 | 4:52.24 | 25742 | 47665
3 | 10:35.41 | 4:23.66 | 47666 | 67456
4 | 14:59.32 | 7:53.42 | 67457 | 102973
5 | 22:52.74 | 4:39.29 | 102974 | 123927
6 | 27:32.28 | 5:12.34 | 123928 | 147361
7 | 32:44.62 | 7:44.56 | 147362 | 182217
8 | 40:29.43 | 5:29.57 | 182218 | 206949
9 | 45:59.25 | 5:02.01 | 206950 | 229600
10 | 51:01.26 | 7:55.22 | 229601 | 265247
11 | 58:56.48 | 8:45.72 | 265248 | 304694
12 | 70:14.45 | 1:33.34 | 316095 | 323103

Range status and errors

Selected range

Filename C:\OdW\1997 – Calling All Stations (A2 83037)\Genesis – Calling All Stations (A2 83037).wav

Peak level 100.0 %
Extraction speed 1.4 X
Range quality 100.0 %
Test CRC FF208E62
Copy CRC FF208E62
Copy OK

No errors occurred

AccurateRip summary

Track 1 accurately ripped (confidence 45) [8BAC85FB] (AR v2)
Track 2 accurately ripped (confidence 45) [DEF9A07B] (AR v2)
Track 3 accurately ripped (confidence 44) [C8BEF3E2] (AR v2)
Track 4 accurately ripped (confidence 45) [77F2CBFE] (AR v2)
Track 5 accurately ripped (confidence 45) [6E8B01CE] (AR v2)
Track 6 accurately ripped (confidence 44) [286772DB] (AR v2)
Track 7 accurately ripped (confidence 46) [C5220CEB] (AR v2)
Track 8 accurately ripped (confidence 45) [82F77E72] (AR v2)
Track 9 accurately ripped (confidence 45) [7F70730B] (AR v2)
Track 10 accurately ripped (confidence 45) [044FD461] (AR v2)
Track 11 accurately ripped (confidence 45) [370B1549] (AR v2)

All tracks accurately ripped

End of status report

==== Log checksum 8F41FD21BF987F404D746AAC115A250667F69AAB9738E9278DA74B9A852C7B51 ====

REM GENRE “Progressive Rock”
REM DATE 1997
REM DISCID A310D40C
REM COMMENT “ExactAudioCopy v1.0b3”
PERFORMER “Genesis”
TITLE “Calling All Stations (A2 83037)”
FILE “Genesis – Calling All Stations (A2 83037).flac” WAVE
TRACK 01 AUDIO
TITLE “Calling All Stations”
PERFORMER “Genesis”
INDEX 01 00:00:00
TRACK 02 AUDIO
TITLE “Congo”
PERFORMER “Genesis”
INDEX 01 05:43:17
TRACK 03 AUDIO
TITLE “Shipwrecked”
PERFORMER “Genesis”
INDEX 00 10:33:57
INDEX 01 10:35:41
TRACK 04 AUDIO
TITLE “Alien Afternoon”
PERFORMER “Genesis”
INDEX 00 14:58:41
INDEX 01 14:59:32
TRACK 05 AUDIO
TITLE “Not About Us”
PERFORMER “Genesis”
INDEX 00 22:50:37
INDEX 01 22:52:74
TRACK 06 AUDIO
TITLE “If That’s What You Need”
PERFORMER “Genesis”
INDEX 00 27:30:69
INDEX 01 27:32:28
TRACK 07 AUDIO
TITLE “The Dividing Line”
PERFORMER “Genesis”
INDEX 00 32:44:38
INDEX 01 32:44:62
TRACK 08 AUDIO
TITLE “Uncertain Weather”
PERFORMER “Genesis”
INDEX 00 40:29:17
INDEX 01 40:29:43
TRACK 09 AUDIO
TITLE “Small Talk”
PERFORMER “Genesis”
INDEX 00 45:58:31
INDEX 01 45:59:25
TRACK 10 AUDIO
TITLE “There Must Be Some Other Way”
PERFORMER “Genesis”
INDEX 00 51:01:20
INDEX 01 51:01:26
TRACK 11 AUDIO
TITLE “One Man’s Fool”
PERFORMER “Genesis”
INDEX 00 58:55:09
INDEX 01 58:56:48


Leave a Reply

Your email address will not be published. Required fields are marked *

This site uses Akismet to reduce spam. Learn how your comment data is processed.