Genesis – Calling All Stations




Genesis – Calling All Stations

Artist: Genesis
Year: 1997
Genre: Rock
Notes: Discogs
Add. Notes:
Watch Songs on: YouTube
Cover incl.: Yes
Encoder: FLAC
Bitrate: ~1000 kBit/s (44.1 kHz/16 Bit/s)
Log & Cue incl.: Yes
Size: 1068,4 MB
Password: “slam” (without ” “)


All Downloads/Hosters are compatible

Download 1
KatFile.com
Turbobit.net
FileFactory.com
Rapidgator.net
Download 2
KatFile.com
Turbobit.net
FileFactory.com
Rapidgator.net

Tracklist:

1 - Calling All Stations - 5:46
2 - Congo - 4:52
3 - Shipwrecked - 4:24
4 - Alien Afternoon - 7:52
5 - Not About Us - 4:39
6 - If That's What You Need - 5:13
7 - The Dividing Line - 7:46
8 - Uncertain Weather - 5:30
9 - Small Talk - 5:03
10 - There Must Be Some Other Way - 7:55
11 - One Man's Fool - 8:46

EAC-Log, CUE-Sheed & NFO:

Click to open spoiler
Exact Audio Copy V1.0 beta 1 from 15. November 2010

EAC extraction logfile from 1. February 2011, 22:00

Genesis / Calling All Stations (GEN CD6)

Used drive : TEAC DV-W516GDM Adapter: 0 ID: 1

Read mode : Secure
Utilize accurate stream : Yes
Defeat audio cache : Yes
Make use of C2 pointers : No

Read offset correction : 6
Overread into Lead-In and Lead-Out : No
Fill up missing offset samples with silence : Yes
Delete leading and trailing silent blocks : No
Null samples used in CRC calculations : Yes
Used interface : Native Win32 interface for Win NT & 2000

Used output format : User Defined Encoder
Selected bitrate : 896 kBit/s
Quality : High
Add ID3 tag : No
Command line compressor : C:\Program Files\Exact Audio Copy 1.0\Flac\flac.exe
Additional command line options : -8 -V %s

TOC of the extracted CD

Track | Start | Length | Start sector | End sector
———————————————————
1 | 0:00.00 | 5:44.05 | 0 | 25804
2 | 5:44.05 | 4:52.12 | 25805 | 47716
3 | 10:36.17 | 4:23.68 | 47717 | 67509
4 | 15:00.10 | 7:53.42 | 67510 | 103026
5 | 22:53.52 | 4:39.30 | 103027 | 123981
6 | 27:33.07 | 5:12.35 | 123982 | 147416
7 | 32:45.42 | 7:44.60 | 147417 | 182276
8 | 40:30.27 | 5:29.55 | 182277 | 207006
9 | 46:00.07 | 5:02.15 | 207007 | 229671
10 | 51:02.22 | 7:55.10 | 229672 | 265306
11 | 58:57.32 | 8:46.45 | 265307 | 304801

Range status and errors

Selected range

Filename C:\Olaf der Weisse\Genesis . 1997 . Calling All Stations (GEN CD6)\Genesis – Calling All Stations (GEN CD6).wav

Peak level 100.0 %
Extraction speed 0.2 X
Range quality 100.0 %
Test CRC 1A706780
Copy CRC 1A706780
Copy OK

No errors occurred

AccurateRip summary

Track 1 accurately ripped (confidence 6) [56B3DB0F]
Track 2 accurately ripped (confidence 6) [FC47CDD3]
Track 3 accurately ripped (confidence 6) [104DE2F6]
Track 4 accurately ripped (confidence 6) [8772A9C0]
Track 5 accurately ripped (confidence 6) [4BF777CD]
Track 6 accurately ripped (confidence 6) [B3012967]
Track 7 accurately ripped (confidence 6) [19D3F648]
Track 8 accurately ripped (confidence 6) [F179A0B0]
Track 9 accurately ripped (confidence 6) [FAC70229]
Track 10 accurately ripped (confidence 6) [C7AEFE97]
Track 11 accurately ripped (confidence 6) [DE65FCA3]

All tracks accurately ripped

End of status report

==== Log checksum 92FCD7AA649628DABF60812D8B64AD0EE20BE50374F4B6E9707414C21BDDF0CC ====

REM GENRE Rock
REM DATE 1997
REM DISCID A00FE00B
REM COMMENT “ExactAudioCopy v1.0b1”
PERFORMER “Genesis”
TITLE “Calling All Stations (GEN CD6)”
FILE “Genesis – Calling All Stations (GEN CD6).flac” WAVE
TRACK 01 AUDIO
TITLE “Calling All Stations”
PERFORMER “Genesis”
INDEX 01 00:00:00
TRACK 02 AUDIO
TITLE “Congo”
PERFORMER “Genesis”
INDEX 01 05:44:05
TRACK 03 AUDIO
TITLE “Shipwrecked”
PERFORMER “Genesis”
INDEX 00 10:35:12
INDEX 01 10:36:17
TRACK 04 AUDIO
TITLE “Alien Afternoon”
PERFORMER “Genesis”
INDEX 00 14:59:57
INDEX 01 15:00:10
TRACK 05 AUDIO
TITLE “Not About Us”
PERFORMER “Genesis”
INDEX 00 22:52:27
INDEX 01 22:53:52
TRACK 06 AUDIO
TITLE “If That’s What You Need”
PERFORMER “Genesis”
INDEX 00 27:32:12
INDEX 01 27:33:07
TRACK 07 AUDIO
TITLE “The Dividing Line”
PERFORMER “Genesis”
INDEX 01 32:45:42
TRACK 08 AUDIO
TITLE “Uncertain Weather”
PERFORMER “Genesis”
INDEX 01 40:30:27
TRACK 09 AUDIO
TITLE “Small Talk”
PERFORMER “Genesis”
INDEX 00 45:59:52
INDEX 01 46:00:07
TRACK 10 AUDIO
TITLE “There Must Be Some Other Way”
PERFORMER “Genesis”
INDEX 01 51:02:22
TRACK 11 AUDIO
TITLE “One Man’s Fool”
PERFORMER “Genesis”
INDEX 00 58:56:32
INDEX 01 58:57:32


Leave a Reply

Your email address will not be published. Required fields are marked *

This site uses Akismet to reduce spam. Learn how your comment data is processed.