Genesis – A Trick Of The Tail (Remastered)




Artist: Genesis
Year: 1976/1994
Genre: Rock
Notes: Discogs
Add. Notes: Remastered
Encoder: FLAC
Bitrate: ~900 kBit/s (44.1 kHz/16 Bit/s)
Size: 355,76 MB
Password: – not required –


Crypted via FileCrypt.cc:

.

Crypted via Relink.to:

Tracklist:

1 - Dance On A Volcano - 5:55
2 - Entangled - 6:27
3 - Squonk - 6:29
4 - Mad Man Moon - 7:36
5 - Robbery, Assault And Battery - 6:17
6 - Ripples ... - 8:06
7 - A Trick Of The Tail - 4:35
8 - Los Endos - 5:46

EAC-Log, CUE-Sheed & NFO:

Click to open spoiler
Exact Audio Copy V1.0 beta 3 from 29. August 2011

Отчёт EAC об извлечении, выполненном 27. июня 2013, 22:12

Genesis / A Trick Of The Tail

Дисковод: SONY CD-RW CRX230ED Adapter: 0 ID: 1

Режим чтения : Достоверность
Использование точного потока : Да
Отключение кэша аудио : Да
Использование указателей C2 : Нет

Коррекция смещения при чтении : 6
Способность читать области Lead-in и Lead-out : Нет
Заполнение пропущенных сэмплов тишиной : Да
Удаление блоков с тишиной в начале и конце : Нет
При вычислениях CRC использовались нулевые сэмплы : Да
Интерфейс : Установленный внешний ASPI-интерфейс

Выходной формат : Внутренние WAV-операции
Формат сэмплов : 44.100 Гц; 16 бит; стерео

TOC извлечённого CD

Трек | Старт | Длительность | Начальный сектор | Конечный сектор
———————————————————————
1 | 0:00.33 | 5:54.52 | 33 | 26634
2 | 5:55.10 | 6:26.40 | 26635 | 55624
3 | 12:21.50 | 6:29.23 | 55625 | 84822
4 | 18:50.73 | 7:34.00 | 84823 | 118872
5 | 26:24.73 | 6:16.65 | 118873 | 147137
6 | 32:41.63 | 8:06.20 | 147138 | 183607
7 | 40:48.08 | 4:34.45 | 183608 | 204202
8 | 45:22.53 | 5:46.42 | 204203 | 230194

Характеристики диапазона извлечения и сообщения об ошибках

Выбранный диапазон

Имя файла E:\MusicCD\Genesis – A Trick Of The Tail\Genesis – A Trick Of The Tail.wav

Пиковый уровень 89.9 %
Скорость извлечения 7.6 X
Качество диапазона 100.0 %
CRC теста 24AF644C
CRC копии 24AF644C
Копирование… OK

Ошибок не произошло

AccurateRip: сводка

Трек 1 : извлечено точно (доверие 6) [428ABF56] (AR v2)
Трек 2 : извлечено точно (доверие 6) [57561875] (AR v2)
Трек 3 : извлечено точно (доверие 6) [A9E5E765] (AR v2)
Трек 4 : извлечено точно (доверие 6) [0E65BDEB] (AR v2)
Трек 5 : извлечено точно (доверие 6) [17F6627A] (AR v2)
Трек 6 : извлечено точно (доверие 6) [D230342B] (AR v2)
Трек 7 : извлечено точно (доверие 6) [E3830B77] (AR v2)
Трек 8 : извлечено точно (доверие 6) [7EE11BEA] (AR v2)

Все треки извлечены точно

Конец отчёта

==== Контрольная сумма отчёта ACD9449DBA3A5E318DD19656953AB13F7461014B0490982A046C41A9541BE1DE ====

REM GENRE “Progressive Rock”
REM DATE 1976
REM DISCID 670BFD08
REM COMMENT “ExactAudioCopy v1.0b3”
PERFORMER “Genesis”
TITLE “A Trick Of The Tail”
FILE “Genesis – A Trick Of The Tail.flac” WAVE
TRACK 01 AUDIO
TITLE “Dance On A Volcano”
PERFORMER “Genesis”
INDEX 00 00:00:00
INDEX 01 00:00:33
TRACK 02 AUDIO
TITLE “Entangled”
PERFORMER “Genesis”
INDEX 00 05:53:70
INDEX 01 05:55:10
TRACK 03 AUDIO
TITLE “Squonk”
PERFORMER “Genesis”
INDEX 01 12:21:50
TRACK 04 AUDIO
TITLE “Mad Man Moon”
PERFORMER “Genesis”
INDEX 00 18:48:68
INDEX 01 18:50:73
TRACK 05 AUDIO
TITLE “Robbery, Assault & Battery”
PERFORMER “Genesis”
INDEX 00 26:22:58
INDEX 01 26:24:73
TRACK 06 AUDIO
TITLE “Ripples”
PERFORMER “Genesis”
INDEX 00 32:40:28
INDEX 01 32:41:63
TRACK 07 AUDIO
TITLE “A Trick Of The Tail”
PERFORMER “Genesis”
INDEX 00 40:46:05
INDEX 01 40:48:08
TRACK 08 AUDIO
TITLE “Los Endos”
PERFORMER “Genesis”
INDEX 01 45:22:53

Leave a Reply

Your email address will not be published. Required fields are marked *

Enter the text from the image below
 

This site uses Akismet to reduce spam. Learn how your comment data is processed.