Genesis – A Trick Of The Tail (Japanese Edition)




Artist: Genesis
Year: 1976/1988
Genre: Rock
Notes: Discogs
Add. Notes: Japanese Edition
Cover incl.: Yes
Encoder: FLAC
Bitrate: ~800 kBit/s (44.1 kHz/16 Bit/s)
Log & Cue incl.: Yes
Size: 765,83 MB
Password: “slam” (without ” “)


All Downloads/Hosters are compatible

Download 1
Turbobit.net
Rapidgator.net
KatFile.com
UploadRar.com
Download 2
Turbobit.net
Rapidgator.net
KatFile.com
UploadRar.com

Tracklist:

1 - Dance On A Volcano - 5:55
2 - Entangled - 6:27
3 - Squonk - 6:29
4 - Mad Man Moon - 7:36
5 - Robbery, Assault And Battery - 6:17
6 - Ripples ... - 8:06
7 - A Trick Of The Tail - 4:35
8 - Los Endos - 5:46

EAC-Log, CUE-Sheed & NFO:

Click to open spoiler
Exact Audio Copy V0.99 prebeta 5 from 4. May 2009

EAC extraction logfile from 29. November 2011, 22:19

Genesis / A Trick Of The Tail.VJD-28026.Japan

Used drive : PLEXTOR CD-R PREMIUM2 Adapter: 0 ID: 1

Read mode : Secure
Utilize accurate stream : Yes
Defeat audio cache : Yes
Make use of C2 pointers : No

Read offset correction : 30
Overread into Lead-In and Lead-Out : No
Fill up missing offset samples with silence : Yes
Delete leading and trailing silent blocks : No
Null samples used in CRC calculations : Yes
Used interface : Installed external ASPI interface

Used output format : User Defined Encoder
Selected bitrate : 768 kBit/s
Quality : High
Add ID3 tag : No
Command line compressor : C:\Program Files\Exact Audio Copy\FLAC\FLAC.EXE
Additional command line options : -6 -V -T “ARTIST=%a” -T “TITLE=%t” -T “ALBUM=%g” -T “DATE=%y” -T “TRACKNUMBER=%n” -T “GENRE=%m” -T “COMMENT=%e” %s -o %d

TOC of the extracted CD

Track | Start | Length | Start sector | End sector
———————————————————
1 | 0:00.37 | 5:54.33 | 37 | 26619
2 | 5:54.70 | 6:26.55 | 26620 | 55624
3 | 12:21.50 | 6:27.52 | 55625 | 84701
4 | 18:49.27 | 7:34.43 | 84702 | 118794
5 | 26:23.70 | 6:17.30 | 118795 | 147099
6 | 32:41.25 | 8:06.05 | 147100 | 183554
7 | 40:47.30 | 4:34.57 | 183555 | 204161
8 | 45:22.12 | 5:50.35 | 204162 | 230446

Range status and errors

Selected range

Filename H:\Temp\Genesis\A Trick Of The Tail.1976.VJD-28026.Virgin.Japan\Genesis – A Trick Of The Tail.VJD-28026.Japan.wav

Peak level 97.7 %
Range quality 100.0 %
Test CRC 56BF3D08
Copy CRC 56BF3D08
Copy OK

No errors occurred

AccurateRip summary

Track 1 not present in database
Track 2 not present in database
Track 3 not present in database
Track 4 not present in database
Track 5 not present in database
Track 6 not present in database
Track 7 not present in database
Track 8 not present in database

None of the tracks are present in the AccurateRip database

End of status report

REM GENRE “Progressive Rock”
REM DATE 1975
REM DISCID 6C0C0008
REM COMMENT “ExactAudioCopy v0.99pb5”
PERFORMER “Genesis”
TITLE “A Trick Of The Tail.VJD-28026.Japan”
FILE “Genesis – A Trick Of The Tail.VJD-28026.Japan.flac” WAVE
TRACK 01 AUDIO
TITLE “Dance on a Volcano”
PERFORMER “Genesis”
INDEX 00 00:00:00
INDEX 01 00:00:37
TRACK 02 AUDIO
TITLE “Entangled”
PERFORMER “Genesis”
INDEX 01 05:54:70
TRACK 03 AUDIO
TITLE “Squonk”
PERFORMER “Genesis”
INDEX 01 12:21:50
TRACK 04 AUDIO
TITLE “Mad Man Moon”
PERFORMER “Genesis”
INDEX 00 18:49:20
INDEX 01 18:49:27
TRACK 05 AUDIO
TITLE “Robbery, Assault and Battery”
PERFORMER “Genesis”
INDEX 00 26:23:10
INDEX 01 26:23:70
TRACK 06 AUDIO
TITLE “Ripples”
PERFORMER “Genesis”
INDEX 00 32:40:50
INDEX 01 32:41:25
TRACK 07 AUDIO
TITLE “A Trick of the Tail”
PERFORMER “Genesis”
INDEX 00 40:46:30
INDEX 01 40:47:30
TRACK 08 AUDIO
TITLE “Los Endos”
PERFORMER “Genesis”
INDEX 01 45:22:12


Leave a Reply

Your email address will not be published. Required fields are marked *

This site uses Akismet to reduce spam. Learn how your comment data is processed.