GBH – Church Of The Truly Warped (Reissue)




[Total: 0    Average: 0/5]

Artist: GBH
Year: 1992/2006
Genre: Punk
Notes: Discogs
Add. Notes: Reissue
Cover incl.: Yes
Encoder: FLAC
Bitrate: ~1000 kBit/s (44.1 kHz/16 Bit/s)
Log & Cue incl.: Yes
Size: 372 MB
Password: “slam” (without ” “)


All Downloads/Hosters are compatible

Download 1
KatFile.com
Turbobit.net
FileFactory.com
Rapidgator.net
Download 2
KatFile.com
Turbobit.net
FileFactory.com
Rapidgator.net

Tracklist:

1. Pure Greed
2. Not Enough Hate
3. Leather Coffin
4. Candy Man
5. Lords Of Discipline
6. Where The Wild Things Are
7. Church Of The Truly Warped
8. Back
9. I Needs Energy
10. Evil Evar
11. All For The Cause
12. Pure Greed (Demo)
13. Candy Man (Demo)
14. Not Enough Hate (Demo)

EAC-Log, CUE-Sheed & NFO:

Click to open spoiler
Exact Audio Copy V0.99 prebeta 4 from 23. January 2008

EAC extraction logfile from 28. October 2008, 12:57

GBH / Church Of The Truly Warped

Used drive : HL-DT-STDVDRAM GSA-E10L Adapter: 4 ID: 0

Read mode : Secure
Utilize accurate stream : Yes
Defeat audio cache : No
Make use of C2 pointers : Yes

Read offset correction : 667
Overread into Lead-In and Lead-Out : No
Fill up missing offset samples with silence : Yes
Delete leading and trailing silent blocks : No
Null samples used in CRC calculations : Yes
Used interface : Native Win32 interface for Win NT & 2000
Gap handling : Appended to previous track

Used output format : User Defined Encoder
Selected bitrate : 128 kBit/s
Quality : High
Add ID3 tag : No
Command line compressor : C:\Program Files\Exact Audio Copy\Flac\flac.exe
Additional command line options : -V -8 -T \”artist=%a\” -T \”title=%t\” -T \”album=%g\” -T \”date=%y\” -T \”tracknumber=%n\” -T \”genre=%m\” %s

TOC of the extracted CD

Track | Start | Length | Start sector | End sector
———————————————————
1 | 0:00.00 | 3:24.55 | 0 | 15354
2 | 3:24.55 | 2:56.10 | 15355 | 28564
3 | 6:20.65 | 3:05.32 | 28565 | 42471
4 | 9:26.22 | 3:20.43 | 42472 | 57514
5 | 12:46.65 | 3:52.69 | 57515 | 74983
6 | 16:39.59 | 3:32.12 | 74984 | 90895
7 | 20:11.71 | 3:01.18 | 90896 | 104488
8 | 23:13.14 | 3:08.50 | 104489 | 118638
9 | 26:21.64 | 3:29.64 | 118639 | 134377
10 | 29:51.53 | 4:26.06 | 134378 | 154333
11 | 34:17.59 | 3:58.19 | 154334 | 172202
12 | 38:16.03 | 3:29.31 | 172203 | 187908
13 | 41:45.34 | 3:24.40 | 187909 | 203248
14 | 45:09.74 | 3:00.29 | 203249 | 216777

Track 1

Filename D:\GBH\Church Of The Truly Warped\01 – Pure Greed.wav

Pre-gap length 0:00:02.00

Peak level 97.7 %
Track quality 100.0 %
Test CRC C0E46AC7
Copy CRC C0E46AC7
Copy OK

Track 2

Filename D:\GBH\Church Of The Truly Warped\02 – Not Enough Hate.wav

Peak level 97.7 %
Track quality 100.0 %
Test CRC 79C9D261
Copy CRC 79C9D261
Copy OK

Track 3

Filename D:\GBH\Church Of The Truly Warped\03 – Leather Coffin.wav

Peak level 97.7 %
Track quality 100.0 %
Test CRC 67197519
Copy CRC 67197519
Copy OK

Track 4

Filename D:\GBH\Church Of The Truly Warped\04 – Candy Man.wav

Peak level 97.7 %
Track quality 100.0 %
Test CRC 8A7AF501
Copy CRC 8A7AF501
Copy OK

Track 5

Filename D:\GBH\Church Of The Truly Warped\05 – Lords of Discipline.wav

Peak level 97.7 %
Track quality 100.0 %
Test CRC C02EA2B0
Copy CRC C02EA2B0
Copy OK

Track 6

Filename D:\GBH\Church Of The Truly Warped\06 – Where the Wild Things Are.wav

Peak level 97.7 %
Track quality 100.0 %
Test CRC D9648AC1
Copy CRC D9648AC1
Copy OK

Track 7

Filename D:\GBH\Church Of The Truly Warped\07 – Church of the Truly Warped.wav

Peak level 97.7 %
Track quality 100.0 %
Test CRC D305EEAC
Copy CRC D305EEAC
Copy OK

Track 8

Filename D:\GBH\Church Of The Truly Warped\08 – Back.wav

Peak level 97.7 %
Track quality 99.8 %
Test CRC B262BB31
Copy CRC B262BB31
Copy OK

Track 9

Filename D:\GBH\Church Of The Truly Warped\09 – I Need Energy.wav

Peak level 97.7 %
Track quality 100.0 %
Test CRC 2C86B4E1
Copy CRC 2C86B4E1
Copy OK

Track 10

Filename D:\GBH\Church Of The Truly Warped\10 – Evil Evar.wav

Peak level 97.7 %
Track quality 100.0 %
Test CRC 9C6AA2AA
Copy CRC 9C6AA2AA
Copy OK

Track 11

Filename D:\GBH\Church Of The Truly Warped\11 – All For the Cause.wav

Peak level 97.7 %
Track quality 100.0 %
Test CRC 4BEE72BF
Copy CRC 4BEE72BF
Copy OK

Track 12

Filename D:\GBH\Church Of The Truly Warped\12 – Pure Greed (Demo) (Bonus Track).wav

Peak level 97.7 %
Track quality 99.8 %
Test CRC 47CF4C28
Copy CRC 47CF4C28
Copy OK

Track 13

Filename D:\GBH\Church Of The Truly Warped\13 – Candy Man (Demo) (Bonus Track).wav

Peak level 97.7 %
Track quality 100.0 %
Test CRC 618F6EB7
Copy CRC 618F6EB7
Copy OK

Track 14

Filename D:\GBH\Church Of The Truly Warped\14 – Not Enough Hate (Demo) (Bonus Track).wav

Peak level 97.7 %
Track quality 100.0 %
Test CRC 4E6BD130
Copy CRC 4E6BD130
Copy OK

No errors occurred

End of status report

REM GENRE Punk
REM DATE 1992
REM DISCID BD0B4A0E
REM COMMENT “ExactAudioCopy v0.99pb4”
PERFORMER “GBH”
TITLE “Church Of The Truly Warped ”
FILE “GBH\Church Of The Truly Warped\01 – Pure Greed.wav” WAVE
TRACK 01 AUDIO
TITLE “Pure Greed”
PERFORMER “GBH”
INDEX 01 00:00:00
FILE “GBH\Church Of The Truly Warped\02 – Not Enough Hate.wav” WAVE
TRACK 02 AUDIO
TITLE “Not Enough Hate”
PERFORMER “GBH”
INDEX 01 00:00:00
FILE “GBH\Church Of The Truly Warped\03 – Leather Coffin.wav” WAVE
TRACK 03 AUDIO
TITLE “Leather Coffin”
PERFORMER “GBH”
INDEX 01 00:00:00
FILE “GBH\Church Of The Truly Warped\04 – Candy Man.wav” WAVE
TRACK 04 AUDIO
TITLE “Candy Man”
PERFORMER “GBH”
INDEX 01 00:00:00
FILE “GBH\Church Of The Truly Warped\05 – Lords of Discipline.wav” WAVE
TRACK 05 AUDIO
TITLE “Lords of Discipline”
PERFORMER “GBH”
INDEX 01 00:00:00
FILE “GBH\Church Of The Truly Warped\06 – Where the Wild Things Are.wav” WAVE
TRACK 06 AUDIO
TITLE “Where the Wild Things Are”
PERFORMER “GBH”
INDEX 01 00:00:00
FILE “GBH\Church Of The Truly Warped\07 – Church of the Truly Warped.wav” WAVE
TRACK 07 AUDIO
TITLE “Church of the Truly Warped”
PERFORMER “GBH”
INDEX 01 00:00:00
FILE “GBH\Church Of The Truly Warped\08 – Back.wav” WAVE
TRACK 08 AUDIO
TITLE “Back”
PERFORMER “GBH”
INDEX 01 00:00:00
FILE “GBH\Church Of The Truly Warped\09 – I Need Energy.wav” WAVE
TRACK 09 AUDIO
TITLE “I Need Energy”
PERFORMER “GBH”
INDEX 01 00:00:00
FILE “GBH\Church Of The Truly Warped\10 – Evil Evar.wav” WAVE
TRACK 10 AUDIO
TITLE “Evil Evar”
PERFORMER “GBH”
INDEX 01 00:00:00
FILE “GBH\Church Of The Truly Warped\11 – All For the Cause.wav” WAVE
TRACK 11 AUDIO
TITLE “All For the Cause”
PERFORMER “GBH”
INDEX 01 00:00:00
FILE “GBH\Church Of The Truly Warped\12 – Pure Greed (Demo) (Bonus Track).wav” WAVE
TRACK 12 AUDIO
TITLE “Pure Greed (Demo) (Bonus Track)”
PERFORMER “GBH”
INDEX 01 00:00:00
FILE “GBH\Church Of The Truly Warped\13 – Candy Man (Demo) (Bonus Track).wav” WAVE
TRACK 13 AUDIO
TITLE “Candy Man (Demo) (Bonus Track)”
PERFORMER “GBH”
INDEX 01 00:00:00
FILE “GBH\Church Of The Truly Warped\14 – Not Enough Hate (Demo) (Bonus Track).wav” WAVE
TRACK 14 AUDIO
TITLE “Not Enough Hate (Demo) (Bonus Track)”
PERFORMER “GBH”
INDEX 01 00:00:00


Spread the Download

Leave a Reply

Your email address will not be published. Required fields are marked *

Enter the text from the image below
 

This site uses Akismet to reduce spam. Learn how your comment data is processed.