GBH & Billyclub – Punk As Fuck !!!




No Cover available

Artist: GBH & Billyclub
Year: 1999
Genre: Punk
Notes: Discogs
Add. Notes:
Watch Songs on: YouTube
Cover incl.: No
Encoder: FLAC
Bitrate: ~1000 kBit/s (44.1 kHz/16 Bit/s)
Log & Cue incl.: Yes/Yes
Size: 109 MB
Password: “slam” (without ” “)


All Downloads/Hosters are compatible

Download 1
KatFile.com
Turbobit.net
FileFactory.com
Rapidgator.net
Download 2
KatFile.com
Turbobit.net
FileFactory.com
Rapidgator.net

Tracklist:

1. GBH - No! - 2:09
2. GBH - I'm On Heat - 2:17
3. GBH - Last Of The Teenage Idols - 
4:40
4. Billyclub - Rat Cafe - 2:20
5. Billyclub - Couch Boy - 2:05
6. Billyclub - Dumbfuck - 1:48

EAC-Log, CUE-Sheed & NFO:

Click to open spoiler
Exact Audio Copy V1.0 beta 1 from 15. November 2010

EAC extraction logfile from 3. January 2011, 13:52

GBH / Billyclub / !!Punk As Fuck!!

Used drive : SlimtypeBD E DS4E1S Adapter: 0 ID: 0

Read mode : Secure
Utilize accurate stream : Yes
Defeat audio cache : Yes
Make use of C2 pointers : No

Read offset correction : 6
Overread into Lead-In and Lead-Out : No
Fill up missing offset samples with silence : Yes
Delete leading and trailing silent blocks : No
Null samples used in CRC calculations : Yes
Used interface : Native Win32 interface for Win NT & 2000
Gap handling : Appended to previous track

Used output format : User Defined Encoder
Selected bitrate : 128 kBit/s
Quality : High
Add ID3 tag : No
Command line compressor : C:\Program Files (x86)\Exact Audio Copy\Flac\flac.exe
Additional command line options : -V -8 -T “artist=%a” -T “title=%t” -T “album=%g” -T “date=%y” -T “tracknumber=%n” -T “genre=%m” %s

TOC of the extracted CD

Track | Start | Length | Start sector | End sector
———————————————————
1 | 0:00.00 | 2:09.70 | 0 | 9744
2 | 2:09.70 | 2:17.41 | 9745 | 20060
3 | 4:27.36 | 4:40.14 | 20061 | 41074
4 | 9:07.50 | 2:20.20 | 41075 | 51594
5 | 11:27.70 | 2:05.16 | 51595 | 60985
6 | 13:33.11 | 1:48.09 | 60986 | 69094

Track 1

Filename C:\Downloads\GBH , Billyclub – !!Punk As Fuck!! (1999, FLAC)\01. GBH , No.wav

Pre-gap length 0:00:02.00

Peak level 86.5 %
Extraction speed 2.4 X
Track quality 100.0 %
Test CRC 874A2A16
Copy CRC 874A2A16
Accurately ripped (confidence 1) [A44D560C]
Copy OK

Track 2

Filename C:\Downloads\GBH , Billyclub – !!Punk As Fuck!! (1999, FLAC)\02. GBH , I’m On Heat.wav

Pre-gap length 0:00:01.58

Peak level 88.8 %
Extraction speed 2.6 X
Track quality 100.0 %
Test CRC 6CB4372D
Copy CRC 6CB4372D
Accurately ripped (confidence 1) [2E8E64BE]
Copy OK

Track 3

Filename C:\Downloads\GBH , Billyclub – !!Punk As Fuck!! (1999, FLAC)\03. GBH , Last of the Teenage Idols.wav

Pre-gap length 0:00:01.60

Peak level 99.9 %
Extraction speed 3.2 X
Track quality 100.0 %
Test CRC 6766A8DA
Copy CRC 6766A8DA
Accurately ripped (confidence 1) [A683C37A]
Copy OK

Track 4

Filename C:\Downloads\GBH , Billyclub – !!Punk As Fuck!! (1999, FLAC)\04. Billyclub , Rat Cafe.wav

Pre-gap length 0:00:03.60

Peak level 81.0 %
Extraction speed 3.0 X
Track quality 100.0 %
Test CRC BEF36B7A
Copy CRC BEF36B7A
Accurately ripped (confidence 1) [F2469829]
Copy OK

Track 5

Filename C:\Downloads\GBH , Billyclub – !!Punk As Fuck!! (1999, FLAC)\05. Billyclub , Couch Boy.wav

Pre-gap length 0:00:01.60

Peak level 63.0 %
Extraction speed 2.3 X
Track quality 99.9 %
Test CRC C5E4A743
Copy CRC C5E4A743
Accurately ripped (confidence 1) [D8395E25]
Copy OK

Track 6

Filename C:\Downloads\GBH , Billyclub – !!Punk As Fuck!! (1999, FLAC)\06. Billyclub , Dumbfuck.wav

Pre-gap length 0:00:00.60

Peak level 67.5 %
Extraction speed 3.0 X
Track quality 100.0 %
Test CRC D563BB82
Copy CRC D563BB82
Accurately ripped (confidence 1) [9B177BE0]
Copy OK

All tracks accurately ripped

No errors occurred

End of status report

REM GENRE “Punk Rock”
REM DATE 1999
REM DISCID 4F039906
REM COMMENT “ExactAudioCopy v1.0b1”
PERFORMER “GBH / Billyclub”
TITLE “!!Punk As Fuck!!”
FILE “GBH , Billyclub – !!Punk As Fuck!! (1999, FLAC)\01. GBH , No.wav” WAVE
TRACK 01 AUDIO
TITLE “GBH / No”
PERFORMER “GBH / Billyclub”
FLAGS DCP
INDEX 01 00:00:00
TRACK 02 AUDIO
TITLE “GBH / I’m On Heat”
PERFORMER “GBH / Billyclub”
FLAGS DCP
INDEX 00 02:08:26
FILE “GBH , Billyclub – !!Punk As Fuck!! (1999, FLAC)\02. GBH , I’m On Heat.wav” WAVE
INDEX 01 00:00:00
TRACK 03 AUDIO
TITLE “GBH / Last of the Teenage Idols”
PERFORMER “GBH / Billyclub”
FLAGS DCP
INDEX 00 02:15:71
FILE “GBH , Billyclub – !!Punk As Fuck!! (1999, FLAC)\03. GBH , Last of the Teenage Idols.wav” WAVE
INDEX 01 00:00:00
TRACK 04 AUDIO
TITLE “Billyclub / Rat Cafe”
PERFORMER “GBH / Billyclub”
FLAGS DCP
INDEX 00 04:36:44
FILE “GBH , Billyclub – !!Punk As Fuck!! (1999, FLAC)\04. Billyclub , Rat Cafe.wav” WAVE
INDEX 01 00:00:00
TRACK 05 AUDIO
TITLE “Billyclub / Couch Boy”
PERFORMER “GBH / Billyclub”
FLAGS DCP
INDEX 00 02:18:50
FILE “GBH , Billyclub – !!Punk As Fuck!! (1999, FLAC)\05. Billyclub , Couch Boy.wav” WAVE
INDEX 01 00:00:00
TRACK 06 AUDIO
TITLE “Billyclub / Dumbfuck”
PERFORMER “GBH / Billyclub”
FLAGS DCP
INDEX 00 02:04:46
FILE “GBH , Billyclub – !!Punk As Fuck!! (1999, FLAC)\06. Billyclub , Dumbfuck.wav” WAVE
INDEX 01 00:00:00


Leave a Reply

Your email address will not be published. Required fields are marked *

Enter the text from the image below
 

This site uses Akismet to reduce spam. Learn how your comment data is processed.