Garbage – Version 2.0




Artist: Garbage
Year: 1988
Genre: Rock
Notes: Discogs
Add. Notes:
Cover incl.: No
Encoder: FLAC
Bitrate: ~1000 kBit/s (44.1 kHz/16 Bit/s)
Log & Cue incl.: Yes
Size: 349,8 MB
Password: “slam” (without ” “)


All Downloads/Hosters are compatible

Download 1
KatFile.com
Turbobit.net
Rapidgator.net
Usersdrive.com
Download 2
KatFile.com
Turbobit.net
Rapidgator.net
Usersdrive.com

Tracklist:

1 - Temptation Waits - 4:36
2 - I Think I'm Paranoid - 3:38
3 - When I Grow Up - 3:24
4 - Medication - 4:08
5 - Special - 3:43
6 - Hammering In My Head - 4:52
7 - Push It - 4:02
8 - The Trick Is To Keep Breathing - 4:11
9 - Dumb - 3:50
10 - Sleep Together - 4:03
11 - Wicked Ways - 3:43
12 - You Look So Fine - 5:24

EAC-Log, CUE-Sheed & NFO:

Click to open spoiler
Exact Audio Copy V1.0 beta 3 from 29. August 2011

Отчёт EAC об извлечении, выполненном 18. июля 2013, 19:43

Garbage / Version 2.0

Дисковод: ASUS BW-12B1ST Adapter: 3 ID: 0

Режим чтения : Достоверность
Использование точного потока : Да
Отключение кэша аудио : Да
Использование указателей C2 : Нет

Коррекция смещения при чтении : 6
Способность читать области Lead-in и Lead-out : Нет
Заполнение пропущенных сэмплов тишиной : Да
Удаление блоков с тишиной в начале и конце : Нет
При вычислениях CRC использовались нулевые сэмплы : Да
Интерфейс : Встроенный Win32-интерфейс для Win NT/2000

Выходной формат : Внутренние WAV-операции
Формат сэмплов : 44.100 Гц; 16 бит; стерео

TOC извлечённого CD

Трек | Старт | Длительность | Начальный сектор | Конечный сектор
———————————————————————
1 | 0:00.00 | 4:36.47 | 0 | 20746
2 | 4:36.47 | 3:38.10 | 20747 | 37106
3 | 8:14.57 | 3:24.38 | 37107 | 52444
4 | 11:39.20 | 4:08.07 | 52445 | 71051
5 | 15:47.27 | 3:43.45 | 71052 | 87821
6 | 19:30.72 | 4:52.05 | 87822 | 109726
7 | 24:23.02 | 4:02.40 | 109727 | 127916
8 | 28:25.42 | 4:11.50 | 127917 | 146791
9 | 32:37.17 | 3:50.33 | 146792 | 164074
10 | 36:27.50 | 4:03.37 | 164075 | 182336
11 | 40:31.12 | 3:43.58 | 182337 | 199119
12 | 44:14.70 | 5:24.00 | 199120 | 223419

Характеристики диапазона извлечения и сообщения об ошибках

Выбранный диапазон

Имя файла D:\EAC\Garbage – 1998 – Version 2.0\Garbage – 1998 – Version 2.0.wav

Пиковый уровень 100.0 %
Скорость извлечения 7.1 X
Качество диапазона 100.0 %
CRC теста 65BAF6DA
CRC копии 65BAF6DA
Копирование… OK

Ошибок не произошло

AccurateRip: сводка

Трек 1 : извлечено точно (доверие 40) [311873DD] (AR v2)
Трек 2 : извлечено точно (доверие 41) [BA6C469A] (AR v2)
Трек 3 : извлечено точно (доверие 41) [9C6066D4] (AR v2)
Трек 4 : извлечено точно (доверие 42) [B9344EE6] (AR v2)
Трек 5 : извлечено точно (доверие 42) [F4291730] (AR v2)
Трек 6 : извлечено точно (доверие 43) [F7D37584] (AR v2)
Трек 7 : извлечено точно (доверие 43) [4284659C] (AR v2)
Трек 8 : извлечено точно (доверие 42) [B472AE24] (AR v2)
Трек 9 : извлечено точно (доверие 42) [3335632E] (AR v2)
Трек 10 : извлечено точно (доверие 41) [19460961] (AR v2)
Трек 11 : извлечено точно (доверие 42) [312E0460] (AR v2)
Трек 12 : извлечено точно (доверие 38) [ECA59076] (AR v2)

Все треки извлечены точно

Конец отчёта

==== Контрольная сумма отчёта B8AF8E804B9108879830B6CE6179CFC59BA676A8D0EA0BB54A5DD55524F87A72 ====

REM GENRE Alt.Rock
REM DATE 1998
REM DISCID B90BA20C
REM COMMENT “ExactAudioCopy v1.0b3”
PERFORMER “Garbage”
TITLE “Version 2.0”
FILE “Garbage – 1998 – Version 2.0.flac” WAVE
TRACK 01 AUDIO
TITLE “Temptation waits”
PERFORMER “Garbage”
ISRC USAL19800022
INDEX 01 00:00:00
TRACK 02 AUDIO
TITLE “I think I’m paranoid”
PERFORMER “Garbage”
ISRC USAL19800023
INDEX 01 04:36:47
TRACK 03 AUDIO
TITLE “When I grow up”
PERFORMER “Garbage”
ISRC USAL19800024
INDEX 01 08:14:57
TRACK 04 AUDIO
TITLE “Medication”
PERFORMER “Garbage”
ISRC USAL19800025
INDEX 00 11:36:67
INDEX 01 11:39:20
TRACK 05 AUDIO
TITLE “Special”
PERFORMER “Garbage”
ISRC USAL19800026
INDEX 00 15:46:00
INDEX 01 15:47:27
TRACK 06 AUDIO
TITLE “Hammering in my head”
PERFORMER “Garbage”
ISRC USAL19800027
INDEX 01 19:30:72
TRACK 07 AUDIO
TITLE “Push it”
PERFORMER “Garbage”
ISRC USAL19800028
INDEX 01 24:23:02
TRACK 08 AUDIO
TITLE “The trick is to keep breathing”
PERFORMER “Garbage”
ISRC USAL19800029
INDEX 01 28:25:42
TRACK 09 AUDIO
TITLE “Dumb”
PERFORMER “Garbage”
ISRC USAL19800030
INDEX 01 32:37:17
TRACK 10 AUDIO
TITLE “Sleep together”
PERFORMER “Garbage”
ISRC USAL19800031
INDEX 01 36:27:50
TRACK 11 AUDIO
TITLE “Wicked ways”
PERFORMER “Garbage”
ISRC USAL19800032
INDEX 01 40:31:12
TRACK 12 AUDIO
TITLE “You look so fine”
PERFORMER “Garbage”
ISRC USAL19800033
INDEX 00 44:13:42
INDEX 01 44:14:70


Leave a Reply

Your email address will not be published. Required fields are marked *

Enter the text from the image below
 

This site uses Akismet to reduce spam. Learn how your comment data is processed.