Garbage – Version 2.0 (Special Edition)




[Total: 0    Average: 0/5]

Artist: Garbage
Year: 1998
Genre: Rock
Notes: Discogs
Add. Notes: Special Edition
Cover incl.: Yes
Encoder: FLAC
Bitrate: ~1000 kBit/s (44.1 kHz/16 Bit/s)
Log & Cue incl.: Yes
Size: 491 MB
Password: “slam” (without ” “)


All Downloads/Hosters are compatible

Download 1
Share-online.biz
KatFile.com
Rapidgator.net
Mexa.sh
Download 2
Share-online.biz
KatFile.com
Rapidgator.net
Mexa.sh

Tracklist:

Version 2.0
1-1 - Temptation Waits - 4:36
1-2 - I Think I'm Paranoid - 3:38
1-3 - When I Grow Up - 3:24
1-4 - Medication - 4:08
1-5 - Special - 3:43
1-6 - Hammering In My Head - 4:52
1-7 - Push It - 4:02
1-8 - The Trick Is To Keep Breathing - 
4:11
1-9 - Dumb - 3:50
1-10 - Sleep Together - 4:03
1-11 - Wicked Ways - 3:43
1-12 - You Look So Fine - 5:24
Live CD
2-1 - Dumb - 4:21
2-2 - Stupid Girl - 4:10
2-3 - Temptation Waits - 5:25
2-4 - Vow - 5:11

EAC-Log, CUE-Sheed & NFO:

Click to open spoiler
Exact Audio Copy V1.0 beta 3 from 29. August 2011

Отчёт EAC об извлечении, выполненном 27. августа 2013, 13:33

Garbage / Version 2.0

Дисковод: ASUS BW-12B1ST Adapter: 3 ID: 0

Режим чтения : Достоверность
Использование точного потока : Да
Отключение кэша аудио : Да
Использование указателей C2 : Нет

Коррекция смещения при чтении : 6
Способность читать области Lead-in и Lead-out : Нет
Заполнение пропущенных сэмплов тишиной : Да
Удаление блоков с тишиной в начале и конце : Нет
При вычислениях CRC использовались нулевые сэмплы : Да
Интерфейс : Встроенный Win32-интерфейс для Win NT/2000

Выходной формат : Внутренние WAV-операции
Формат сэмплов : 44.100 Гц; 16 бит; стерео

TOC извлечённого CD

Трек | Старт | Длительность | Начальный сектор | Конечный сектор
———————————————————————
1 | 0:00.00 | 4:36.45 | 0 | 20744
2 | 4:36.45 | 3:38.10 | 20745 | 37104
3 | 8:14.55 | 3:24.30 | 37105 | 52434
4 | 11:39.10 | 4:08.07 | 52435 | 71041
5 | 15:47.17 | 3:43.55 | 71042 | 87821
6 | 19:30.72 | 4:52.03 | 87822 | 109724
7 | 24:23.00 | 4:02.32 | 109725 | 127906
8 | 28:25.32 | 4:11.70 | 127907 | 146801
9 | 32:37.27 | 3:50.23 | 146802 | 164074
10 | 36:27.50 | 4:03.35 | 164075 | 182334
11 | 40:31.10 | 3:43.47 | 182335 | 199106
12 | 44:14.57 | 5:24.05 | 199107 | 223411

Характеристики диапазона извлечения и сообщения об ошибках

Выбранный диапазон

Имя файла D:\EAC\Garbage – 1998 – Version 2.0 (Special Live Edition 1999) (Mushroom ‎– 74321 64463 2)\CD 1 – Version 2.0\Garbage – 1998 – Version 2.0.wav

Пиковый уровень 100.0 %
Скорость извлечения 7.2 X
Качество диапазона 100.0 %
CRC теста 02BE9161
CRC копии 02BE9161
Копирование… OK

Ошибок не произошло

AccurateRip: сводка

Трек 1 : извлечено точно (доверие 166) [085A1662] (AR v2)
Трек 2 : извлечено точно (доверие 170) [686A5BE6] (AR v2)
Трек 3 : извлечено точно (доверие 169) [777ECF5E] (AR v2)
Трек 4 : извлечено точно (доверие 168) [A9D9ECF6] (AR v2)
Трек 5 : извлечено точно (доверие 166) [40226956] (AR v2)
Трек 6 : извлечено точно (доверие 169) [6C6E747B] (AR v2)
Трек 7 : извлечено точно (доверие 172) [785FED74] (AR v2)
Трек 8 : извлечено точно (доверие 170) [B204373D] (AR v2)
Трек 9 : извлечено точно (доверие 168) [FECB30AF] (AR v2)
Трек 10 : извлечено точно (доверие 168) [85B263E4] (AR v2)
Трек 11 : извлечено точно (доверие 168) [71DD5773] (AR v2)
Трек 12 : извлечено точно (доверие 165) [365EFAE2] (AR v2)

Все треки извлечены точно

Конец отчёта

==== Контрольная сумма отчёта 18E2715AC6148F66285942F28CEE60155A4A5A07C06C40E4021835A25A957851 ====

Exact Audio Copy V1.0 beta 3 from 29. August 2011

Отчёт EAC об извлечении, выполненном 27. августа 2013, 13:54

Garbage / Version 2.0: Live CD

Дисковод: ASUS BW-12B1ST Adapter: 3 ID: 0

Режим чтения : Достоверность
Использование точного потока : Да
Отключение кэша аудио : Да
Использование указателей C2 : Нет

Коррекция смещения при чтении : 6
Способность читать области Lead-in и Lead-out : Нет
Заполнение пропущенных сэмплов тишиной : Да
Удаление блоков с тишиной в начале и конце : Нет
При вычислениях CRC использовались нулевые сэмплы : Да
Интерфейс : Встроенный Win32-интерфейс для Win NT/2000

Выходной формат : Внутренние WAV-операции
Формат сэмплов : 44.100 Гц; 16 бит; стерео

TOC извлечённого CD

Трек | Старт | Длительность | Начальный сектор | Конечный сектор
———————————————————————
1 | 0:00.32 | 4:21.30 | 32 | 19636
2 | 4:21.62 | 4:10.20 | 19637 | 38406
3 | 8:32.07 | 5:25.10 | 38407 | 62791
4 | 13:57.17 | 5:11.63 | 62792 | 86179

Характеристики диапазона извлечения и сообщения об ошибках

Выбранный диапазон

Имя файла D:\EAC\Garbage – 1998 – Version 2.0 (Special Live Edition 1999) (Mushroom ‎– 74321 64463 2)\CD 2 – Live CD\Garbage – 1999 – Version 2.0 – Live CD.wav

Пиковый уровень 98.8 %
Скорость извлечения 2.4 X
Качество диапазона 99.9 %
CRC теста EF6E78A0
CRC копии EF6E78A0
Копирование… OK

Ошибок не произошло

AccurateRip: сводка

Трек 1 : извлечено точно (доверие 12) [2BCB4E51] (AR v2)
Трек 2 : извлечено точно (доверие 12) [9916FCBC] (AR v2)
Трек 3 : извлечено точно (доверие 12) [B95485E5] (AR v2)
Трек 4 : извлечено точно (доверие 12) [733301CE] (AR v2)

Все треки извлечены точно

Конец отчёта

==== Контрольная сумма отчёта 26B919662D94472632E5A821CE4B34DE8B8629E9764618BA0A8438521EBE2B49 ====

REM GENRE Alt.Rock
REM DATE 1998
REM DISCID B90BA20C
REM COMMENT “ExactAudioCopy v1.0b3”
PERFORMER “Garbage”
TITLE “Version 2.0”
FILE “Garbage – 1998 – Version 2.0.flac” WAVE
TRACK 01 AUDIO
TITLE “Temptation waits”
PERFORMER “Garbage”
ISRC GBBUF9800291
INDEX 01 00:00:00
TRACK 02 AUDIO
TITLE “I think I’m paranoid”
PERFORMER “Garbage”
ISRC GBBUF9800292
INDEX 01 04:36:45
TRACK 03 AUDIO
TITLE “When I grow up”
PERFORMER “Garbage”
ISRC GBBUF9800293
INDEX 01 08:14:55
TRACK 04 AUDIO
TITLE “Medication”
PERFORMER “Garbage”
ISRC GBBUF9800294
INDEX 00 11:36:67
INDEX 01 11:39:10
TRACK 05 AUDIO
TITLE “Special”
PERFORMER “Garbage”
ISRC GBBUF9800295
INDEX 00 15:46:00
INDEX 01 15:47:17
TRACK 06 AUDIO
TITLE “Hammering in my head”
PERFORMER “Garbage”
ISRC GBBUF9800296
INDEX 01 19:30:72
TRACK 07 AUDIO
TITLE “Push it”
PERFORMER “Garbage”
ISRC GBBUF9800297
INDEX 01 24:23:00
TRACK 08 AUDIO
TITLE “The trick is to keep breathing”
PERFORMER “Garbage”
ISRC GBBUF9800298
INDEX 01 28:25:32
TRACK 09 AUDIO
TITLE “Dumb”
PERFORMER “Garbage”
ISRC GBBUF9800299
INDEX 01 32:37:27
TRACK 10 AUDIO
TITLE “Sleep together”
PERFORMER “Garbage”
ISRC GBBUF9802910
INDEX 01 36:27:50
TRACK 11 AUDIO
TITLE “Wicked ways”
PERFORMER “Garbage”
ISRC GBBUF9802911
INDEX 01 40:31:10
TRACK 12 AUDIO
TITLE “You look so fine”
PERFORMER “Garbage”
ISRC GBBUF9802912
INDEX 00 44:13:42
INDEX 01 44:14:57

REM GENRE Rock
REM DATE 1999
REM DISCID 2B047D04
REM COMMENT “ExactAudioCopy v1.0b3”
PERFORMER “Garbage”
TITLE “Version 2.0: Live CD”
FILE “Garbage – 1999 – Version 2.0 – Live CD.flac” WAVE
TRACK 01 AUDIO
TITLE “Dumb”
PERFORMER “Garbage”
ISRC GBBUF9902913
INDEX 00 00:00:00
INDEX 01 00:00:32
TRACK 02 AUDIO
TITLE “Stupid girl”
PERFORMER “Garbage”
ISRC GBBUF9902914
INDEX 01 04:21:62
TRACK 03 AUDIO
TITLE “Temptation waits”
PERFORMER “Garbage”
ISRC GBBUF9902915
INDEX 01 08:32:07
TRACK 04 AUDIO
TITLE “Vow”
PERFORMER “Garbage”
ISRC GBBUF9902916
INDEX 01 13:57:17


Spread the Download

Leave a Reply

Your email address will not be published. Required fields are marked *

Enter the text from the image below
 

This site uses Akismet to reduce spam. Learn how your comment data is processed.