Garbage – Version 2.0 (Remastered Japanese Edition)




Artist: Garbage
Year: 1998/2018
Genre: Rock
Notes: Discogs
Add. Notes: Remastered Japanese Edition
Cover incl.: Yes
Encoder: FLAC
Bitrate: ~1000 kBit/s (44.1 kHz/16 Bit/s)
Log & Cue incl.: Yes
Size: 586 MB
Password: “slam” (without ” “)


All Downloads/Hosters are compatible

Download 1
KatFile.com
Rapidgator.net
Turbobit.net
FileFactory.com
Download 2
KatFile.com
Rapidgator.net
Turbobit.net
FileFactory.com

Tracklist:

Version 2.0
1-1 - Temptation Waits - 4:37
1-2 - I Think I'm Paranoid - 3:38
1-3 - When I Grow Up - 3:25
1-4 - Medication - 4:08
1-5 - Special - 3:44
1-6 - Hammering In My Head - 4:52
1-7 - Push It - 4:03
1-8 - The Trick Is To Keep Breathing - 
4:12
1-9 - Dumb - 3:50
1-10 - Sleep Together - 4:03
1-11 - Wicked Ways - 3:44
1-12 - You Look So Fine - 5:23

V-Sides
2-1 - Can't Seem To Make You Mine - 
2:55
2-2 - 13x Forever - 3:55
2-3 - Deadwood - 4:22
2-4 - Get Busy With The Fizzy - 2:55
2-5 - Soldier Through This - 3:48
2-6 - Thirteen - 3:30
2-7 - Lick The Pavement - 2:42
2-8 - Medication (Acoustic) - 4:11
2-9 - Tornado - 3:42
2-10 - Afterglow - 2:31

EAC-Log, CUE-Sheed & NFO:

Click to open spoiler
Exact Audio Copy V1.3 from 2. September 2016

????? EAC ?? ??????????, ??????????? 1. ???? 2018, 15:11

Garbage / Version 2.0

????????: ASUS BW-12B1ST Adapter: 1 ID: 0

????? ?????? : ?????????????
????????????? ??????? ?????? : ??
?????????? ???? ????? : ??
????????????? ?????????? C2 : ???

????????? ???????? ??? ?????? : 6
??????????? ?????? ??????? Lead-in ? Lead-out : ???
?????????? ??????????? ??????? ??????? : ??
???????? ?????? ? ??????? ? ?????? ? ????? : ???
??? ??????????? CRC ?????????????? ??????? ?????? : ??
????????? : ?????????? Win32-????????? ??? Win NT/2000

???????? ?????? : ?????????? WAV-????????
?????? ??????? : 44.100 ??; 16 ???; ??????

TOC ???????????? CD

???? | ????? | ???????????? | ????????? ?????? | ???????? ??????
———————————————————————
1 | 0:00.00 | 4:36.45 | 0 | 20744
2 | 4:36.45 | 3:38.10 | 20745 | 37104
3 | 8:14.55 | 3:24.40 | 37105 | 52444
4 | 11:39.20 | 4:08.07 | 52445 | 71051
5 | 15:47.27 | 3:43.45 | 71052 | 87821
6 | 19:30.72 | 4:52.05 | 87822 | 109726
7 | 24:23.02 | 4:02.40 | 109727 | 127916
8 | 28:25.42 | 4:11.60 | 127917 | 146801
9 | 32:37.27 | 3:50.23 | 146802 | 164074
10 | 36:27.50 | 4:03.37 | 164075 | 182336
11 | 40:31.12 | 3:43.58 | 182337 | 199119
12 | 44:14.70 | 5:23.16 | 199120 | 223360

?????????????? ????????? ?????????? ? ????????? ?? ???????

????????? ????????

??? ????? D:\EAC\Evgenius1986\Garbage – 1998 – Version 2.0 (Hostess Entertainment Unlimited ?- HSE-4596)\CD 1\Garbage – 2018 – Version 2.0.wav

??????? ??????? 100.0 %
???????? ?????????? 8.1 X
???????? ????????? 100.0 %
CRC ????? BC0BAD66
CRC ????? BC0BAD66
???????????… OK

?????? ?? ?????????

AccurateRip: ??????

???? 1 ??????????? ? ???? ??????
???? 2 ??????????? ? ???? ??????
???? 3 ??????????? ? ???? ??????
???? 4 ??????????? ? ???? ??????
???? 5 ??????????? ? ???? ??????
???? 6 ??????????? ? ???? ??????
???? 7 ??????????? ? ???? ??????
???? 8 ??????????? ? ???? ??????
???? 9 ??????????? ? ???? ??????
???? 10 ??????????? ? ???? ??????
???? 11 ??????????? ? ???? ??????
???? 12 ??????????? ? ???? ??????

?? ?????? ????? ??? ? ???? AccurateRip

????? ??????

—- CUETools DB Plugin V2.1.6

[CTDB TOCID: RrbG1KxRC5GZAqagyjKA2NhGOf4-] found
Submit result: RrbG1KxRC5GZAqagyjKA2NhGOf4- has been confirmed
Track | CTDB Status
1 | (7/7) Accurately ripped
2 | (7/7) Accurately ripped
3 | (7/7) Accurately ripped
4 | (7/7) Accurately ripped
5 | (7/7) Accurately ripped
6 | (7/7) Accurately ripped
7 | (7/7) Accurately ripped
8 | (7/7) Accurately ripped
9 | (7/7) Accurately ripped
10 | (7/7) Accurately ripped
11 | (7/7) Accurately ripped
12 | (7/7) Accurately ripped

==== ??????????? ????? ?????? A2D78111583CDCFE1D678CD3CBAD3031AB2E3105695F2376B19EAAADB71F18D1 ====

Exact Audio Copy V1.3 from 2. September 2016

????? EAC ?? ??????????, ??????????? 1. ???? 2018, 15:31

Garbage / V-Sides

????????: ASUS BW-12B1ST Adapter: 1 ID: 0

????? ?????? : ?????????????
????????????? ??????? ?????? : ??
?????????? ???? ????? : ??
????????????? ?????????? C2 : ???

????????? ???????? ??? ?????? : 6
??????????? ?????? ??????? Lead-in ? Lead-out : ???
?????????? ??????????? ??????? ??????? : ??
???????? ?????? ? ??????? ? ?????? ? ????? : ???
??? ??????????? CRC ?????????????? ??????? ?????? : ??
????????? : ?????????? Win32-????????? ??? Win NT/2000

???????? ?????? : ?????????? WAV-????????
?????? ??????? : 44.100 ??; 16 ???; ??????

TOC ???????????? CD

???? | ????? | ???????????? | ????????? ?????? | ???????? ??????
———————————————————————
1 | 0:00.00 | 2:54.73 | 0 | 13122
2 | 2:54.73 | 3:55.00 | 13123 | 30747
3 | 6:49.73 | 4:21.74 | 30748 | 50396
4 | 11:11.72 | 2:55.17 | 50397 | 63538
5 | 14:07.14 | 3:48.19 | 63539 | 80657
6 | 17:55.33 | 3:30.15 | 80658 | 96422
7 | 21:25.48 | 2:42.20 | 96423 | 108592
8 | 24:07.68 | 4:10.44 | 108593 | 127386
9 | 28:18.37 | 3:42.17 | 127387 | 144053
10 | 32:00.54 | 2:30.57 | 144054 | 155360

?????????????? ????????? ?????????? ? ????????? ?? ???????

????????? ????????

??? ????? D:\EAC\Evgenius1986\Garbage – 1998 – Version 2.0 (Hostess Entertainment Unlimited ?- HSE-4596)\CD 2 – V-sides\Garbage – 2018 – V-Sides.wav

??????? ??????? 100.0 %
???????? ?????????? 6.3 X
???????? ????????? 100.0 %
CRC ????? 326C6F19
CRC ????? 326C6F19
???????????… OK

?????? ?? ?????????

AccurateRip: ??????

???? 1 ??????????? ? ???? ??????
???? 2 ??????????? ? ???? ??????
???? 3 ??????????? ? ???? ??????
???? 4 ??????????? ? ???? ??????
???? 5 ??????????? ? ???? ??????
???? 6 ??????????? ? ???? ??????
???? 7 ??????????? ? ???? ??????
???? 8 ??????????? ? ???? ??????
???? 9 ??????????? ? ???? ??????
???? 10 ??????????? ? ???? ??????

?? ?????? ????? ??? ? ???? AccurateRip

????? ??????

—- CUETools DB Plugin V2.1.6

[CTDB TOCID: nBd6oIZ4r0brHdTV333ovNV5uQE-] found
Submit result: nBd6oIZ4r0brHdTV333ovNV5uQE- has been confirmed
Track | CTDB Status
1 | (7/7) Accurately ripped
2 | (7/7) Accurately ripped
3 | (7/7) Accurately ripped
4 | (7/7) Accurately ripped
5 | (7/7) Accurately ripped
6 | (7/7) Accurately ripped
7 | (7/7) Accurately ripped
8 | (7/7) Accurately ripped
9 | (7/7) Accurately ripped
10 | (7/7) Accurately ripped

==== ??????????? ????? ?????? CD8AE33010CCBAB6A66FE9519089E6379ED1DDAB0D732571B215FD08AEC67820 ====

REM GENRE Alt.Rock
REM DATE 1998
REM DISCID B90BA20C
REM COMMENT “ExactAudioCopy v1.3”
CATALOG 0602567561651
PERFORMER “Garbage”
TITLE “Version 2.0”
REM COMPOSER “”
FILE “Garbage – 2018 – Version 2.0.flac” WAVE
TRACK 01 AUDIO
TITLE “Temptation Waits”
PERFORMER “Garbage”
REM COMPOSER “”
ISRC USAL19800022
FLAGS DCP
INDEX 01 00:00:00
TRACK 02 AUDIO
TITLE “I Think I’m Paranoid”
PERFORMER “Garbage”
REM COMPOSER “”
ISRC USAL19800023
FLAGS DCP
INDEX 01 04:36:45
TRACK 03 AUDIO
TITLE “When I Grow Up”
PERFORMER “Garbage”
REM COMPOSER “”
ISRC USAL19800024
FLAGS DCP
INDEX 01 08:14:55
TRACK 04 AUDIO
TITLE “Medication”
PERFORMER “Garbage”
REM COMPOSER “”
ISRC USAL19800025
FLAGS DCP
INDEX 01 11:39:20
TRACK 05 AUDIO
TITLE “Special”
PERFORMER “Garbage”
REM COMPOSER “”
ISRC USAL19800026
FLAGS DCP
INDEX 01 15:47:27
TRACK 06 AUDIO
TITLE “Hammering In My Head”
PERFORMER “Garbage”
REM COMPOSER “”
ISRC USAL19800027
FLAGS DCP
INDEX 01 19:30:72
TRACK 07 AUDIO
TITLE “Push It”
PERFORMER “Garbage”
REM COMPOSER “”
ISRC USAL19800028
FLAGS DCP
INDEX 01 24:23:02
TRACK 08 AUDIO
TITLE “The Trick Is To Keep Breathing”
PERFORMER “Garbage”
REM COMPOSER “”
ISRC USAL19800029
FLAGS DCP
INDEX 01 28:25:42
TRACK 09 AUDIO
TITLE “Dumb”
PERFORMER “Garbage”
REM COMPOSER “”
ISRC USAL19800030
FLAGS DCP
INDEX 01 32:37:27
TRACK 10 AUDIO
TITLE “Sleep Together”
PERFORMER “Garbage”
REM COMPOSER “”
ISRC USAL19800031
FLAGS DCP
INDEX 01 36:27:50
TRACK 11 AUDIO
TITLE “Wicked Ways”
PERFORMER “Garbage”
REM COMPOSER “”
ISRC USAL19800032
FLAGS DCP
INDEX 01 40:31:12
TRACK 12 AUDIO
TITLE “You Look So Fine”
PERFORMER “Garbage”
REM COMPOSER “”
ISRC USAL19800033
FLAGS DCP
INDEX 01 44:14:70

REM GENRE Alternative
REM DATE 2018
REM DISCID 8408170A
REM COMMENT “ExactAudioCopy v1.3”
CATALOG 0602567561651
PERFORMER “Garbage”
TITLE “V-Sides”
REM COMPOSER “”
FILE “Garbage – 2018 – V-Sides.flac” WAVE
TRACK 01 AUDIO
TITLE “Can’t Seem to Make You Mine”
PERFORMER “Garbage”
REM COMPOSER “”
ISRC QMB2P1800010
FLAGS DCP
INDEX 01 00:00:00
TRACK 02 AUDIO
TITLE “13x Forever”
PERFORMER “Garbage”
REM COMPOSER “”
ISRC QMB2P1800011
FLAGS DCP
INDEX 01 02:54:73
TRACK 03 AUDIO
TITLE “Deadwood”
PERFORMER “Garbage”
REM COMPOSER “”
ISRC QMB2P1800012
FLAGS DCP
INDEX 01 06:49:73
TRACK 04 AUDIO
TITLE “Get Busy With the Fizzy”
PERFORMER “Garbage”
REM COMPOSER “”
ISRC QMB2P1800013
FLAGS DCP
INDEX 01 11:11:72
TRACK 05 AUDIO
TITLE “Soldier Through This”
PERFORMER “Garbage”
REM COMPOSER “”
ISRC QMB2P1800014
FLAGS DCP
INDEX 01 14:07:14
TRACK 06 AUDIO
TITLE “Thirteen”
PERFORMER “Garbage”
REM COMPOSER “”
ISRC QMB2P1800015
FLAGS DCP
INDEX 01 17:55:33
TRACK 07 AUDIO
TITLE “Lick the Pavement”
PERFORMER “Garbage”
REM COMPOSER “”
ISRC QMB2P1800016
FLAGS DCP
INDEX 01 21:25:48
TRACK 08 AUDIO
TITLE “Medication (acoustic)”
PERFORMER “Garbage”
REM COMPOSER “”
ISRC QMB2P1800017
FLAGS DCP
INDEX 01 24:07:68
TRACK 09 AUDIO
TITLE “Tornado”
PERFORMER “Garbage”
REM COMPOSER “”
ISRC QMB2P1800018
FLAGS DCP
INDEX 01 28:18:37
TRACK 10 AUDIO
TITLE “Afterglow”
PERFORMER “Garbage”
REM COMPOSER “”
ISRC QMB2P1800019
FLAGS DCP
INDEX 01 32:00:54


Leave a Reply

Your email address will not be published. Required fields are marked *

This site uses Akismet to reduce spam. Learn how your comment data is processed.