Garbage – Version 2.0 (Japanese Edition)




[Total: 0    Average: 0/5]

Artist: Garbage
Year: 1998
Genre: Rock
Notes: Discogs
Add. Notes: Japanese Edition
Cover incl.: Yes
Encoder: FLAC
Bitrate: ~1000 kBit/s (44.1 kHz/16 Bit/s)
Log & Cue incl.: Yes
Size: 452,5 MB
Password: “slam” (without ” “)


All Downloads/Hosters are compatible

Download 1
Share-online.biz
KatFile.com
Rapidgator.net
Download 2
Share-online.biz
KatFile.com
Rapidgator.net

Tracklist:

1 - Temptation Waits - 4:36
2 - I Think I'm Paranoid - 3:38
3 - When I Grow Up - 3:24
4 - Medication - 4:08
5 - Special - 3:43
6 - Hammering In My Head - 4:52
7 - Push It - 4:02
8 - The Trick Is To Keep Breathing - 4:11
9 - Dumb - 3:50
10 - Sleep Together - 4:03
11 - Wicked Ways - 3:43
12 - You Look So Fine - 5:24
13 - Push It (Boom Boom Satellites Mix) - 6:44

EAC-Log, CUE-Sheed & NFO:

Click to open spoiler
Exact Audio Copy V1.0 beta 3 from 29. August 2011

EAC extraction logfile from 1. June 2013, 13:25

Garbage / Version 2.0

Used drive : PIONEER DVD-RW DVR-111D Adapter: 4 ID: 1

Read mode : Secure
Utilize accurate stream : Yes
Defeat audio cache : Yes
Make use of C2 pointers : No

Read offset correction : 48
Overread into Lead-In and Lead-Out : No
Fill up missing offset samples with silence : Yes
Delete leading and trailing silent blocks : No
Null samples used in CRC calculations : Yes
Used interface : Native Win32 interface for Win NT & 2000

Used output format : User Defined Encoder
Selected bitrate : 128 kBit/s
Quality : High
Add ID3 tag : No
Command line compressor : F:\Program Files\FLAC\flac.exe
Additional command line options : -V -8 -T “Date=%year%” -T “Genre=%genre%” %source%

TOC of the extracted CD

Track | Start | Length | Start sector | End sector
———————————————————
1 | 0:00.37 | 4:37.20 | 37 | 20831
2 | 4:37.57 | 3:38.10 | 20832 | 37191
3 | 8:15.67 | 3:24.30 | 37192 | 52521
4 | 11:40.22 | 4:08.08 | 52522 | 71129
5 | 15:48.30 | 3:43.55 | 71130 | 87909
6 | 19:32.10 | 4:52.02 | 87910 | 109811
7 | 24:24.12 | 4:02.33 | 109812 | 127994
8 | 28:26.45 | 4:11.70 | 127995 | 146889
9 | 32:38.40 | 3:50.22 | 146890 | 164161
10 | 36:28.62 | 4:03.35 | 164162 | 182421
11 | 40:32.22 | 3:43.48 | 182422 | 199194
12 | 44:15.70 | 5:25.42 | 199195 | 223611
13 | 49:41.37 | 6:43.45 | 223612 | 253881

Range status and errors

Selected range

Filename D:\EAC – extract\Garbage – 1998 – Version 2.0 (BVCP-1087).wav

Peak level 100.0 %
Extraction speed 7.2 X
Range quality 99.9 %
Test CRC D9851CB7
Copy CRC D9851CB7
Copy OK

No errors occurred

AccurateRip summary

Track 1 not present in database
Track 2 not present in database
Track 3 not present in database
Track 4 not present in database
Track 5 not present in database
Track 6 not present in database
Track 7 not present in database
Track 8 not present in database
Track 9 not present in database
Track 10 not present in database
Track 11 not present in database
Track 12 not present in database
Track 13 not present in database

None of the tracks are present in the AccurateRip database

End of status report

==== Log checksum D92369157F7070A7F6BC54B5F5C33D5BD027FF23C7F7C9B65104DFE8DA8CFE02 ====

REM DISCID C00D390D
REM COMMENT “ExactAudioCopy v1.0b3”
PERFORMER “Garbage”
TITLE “Version 2.0”
FILE “Garbage – 1998 – Version 2.0 (BVCP-1087).flac” WAVE
TRACK 01 AUDIO
TITLE “Temptation waits”
PERFORMER “Garbage”
INDEX 00 00:00:00
INDEX 01 00:00:37
TRACK 02 AUDIO
TITLE “I think I’m paranoid”
PERFORMER “Garbage”
INDEX 01 04:37:57
TRACK 03 AUDIO
TITLE “When I grow up”
PERFORMER “Garbage”
INDEX 01 08:15:67
TRACK 04 AUDIO
TITLE “Medication”
PERFORMER “Garbage”
INDEX 00 11:38:06
INDEX 01 11:40:22
TRACK 05 AUDIO
TITLE “Special”
PERFORMER “Garbage”
INDEX 00 15:47:13
INDEX 01 15:48:30
TRACK 06 AUDIO
TITLE “Hammering in my head”
PERFORMER “Garbage”
INDEX 01 19:32:10
TRACK 07 AUDIO
TITLE “Push it”
PERFORMER “Garbage”
INDEX 01 24:24:12
TRACK 08 AUDIO
TITLE “The trick is keep breathing”
PERFORMER “Garbage”
INDEX 01 28:26:45
TRACK 09 AUDIO
TITLE “Dumb”
PERFORMER “Garbage”
INDEX 01 32:38:40
TRACK 10 AUDIO
TITLE “Sleep together”
PERFORMER “Garbage”
INDEX 01 36:28:62
TRACK 11 AUDIO
TITLE “Wicked ways”
PERFORMER “Garbage”
INDEX 01 40:32:22
TRACK 12 AUDIO
TITLE “You look so fine”
PERFORMER “Garbage”
INDEX 00 44:14:56
INDEX 01 44:15:70
TRACK 13 AUDIO
TITLE “Push it (Boom boom satellites mix)”
PERFORMER “Garbage”
INDEX 00 49:40:01
INDEX 01 49:41:37


Spread the Download

Leave a Reply

Your email address will not be published. Required fields are marked *

Enter the text from the image below
 

This site uses Akismet to reduce spam. Learn how your comment data is processed.