Garbage – Version 2.0 (Limited Japanese Edition)




Artist: Garbage
Year: 1998
Genre: Rock
Notes: Discogs
Add. Notes: Limited Japanese Edition
Cover incl.: Yes
Encoder: FLAC
Bitrate: ~1000 kBit/s (44.1 kHz/16 Bit/s)
Log & Cue incl.: Yes
Size: 392 MB
Password: “slam” (without ” “)


All Downloads/Hosters are compatible

Download 1
KatFile.com
Turbobit.net
FileFactory.com
Rapidgator.net
Download 2
KatFile.com
Turbobit.net
FileFactory.com
Rapidgator.net

Tracklist:

1 Temptation Waits 4:37
2 I Think I'm Paranoid 3:38
3 When I Grow Up 3:25
4 Medication 4:08
5 Special 3:44
6 Hammering In My Head 4:52
7 Push It 4:03
8 The Trick Is To Keep Breathing 4:12
9 Dumb 3:50
10 Sleep Together 4:03
11 Wicked Ways 3:44
12 You Look So Fine 5:25
Bonus Tracks
13 Lick The Pavement 2:44
14 Thirteen 3:27

EAC-Log, CUE-Sheed & NFO:

Click to open spoiler
Exact Audio Copy V1.0 beta 6 from 9. April 2015

Отчёт EAC об извлечении, выполненном 19. июля 2015, 17:52

Garbage / Version 2.0

Дисковод: HL-DT-STDVDRAM GT20N Adapter: 1 ID: 0

Режим чтения : Достоверность
Использование точного потока : Да
Отключение кэша аудио : Да
Использование указателей C2 : Нет

Коррекция смещения при чтении : 667
Способность читать области Lead-in и Lead-out : Нет
Заполнение пропущенных сэмплов тишиной : Да
Удаление блоков с тишиной в начале и конце : Нет
При вычислениях CRC использовались нулевые сэмплы : Да
Интерфейс : Встроенный Win32-интерфейс для Win NT/2000

Выходной формат : Внутренние WAV-операции
Формат сэмплов : 44.100 Гц; 16 бит; стерео

TOC извлечённого CD

Трек | Старт | Длительность | Начальный сектор | Конечный сектор
———————————————————————
1 | 0:00.37 | 4:37.15 | 37 | 20826
2 | 4:37.52 | 3:38.10 | 20827 | 37186
3 | 8:15.62 | 3:24.38 | 37187 | 52524
4 | 11:40.25 | 4:08.12 | 52525 | 71136
5 | 15:48.37 | 3:43.40 | 71137 | 87901
6 | 19:32.02 | 4:52.05 | 87902 | 109806
7 | 24:24.07 | 4:02.40 | 109807 | 127996
8 | 28:26.47 | 4:11.65 | 127997 | 146886
9 | 32:38.37 | 3:50.18 | 146887 | 164154
10 | 36:28.55 | 4:03.37 | 164155 | 182416
11 | 40:32.17 | 3:43.55 | 182417 | 199196
12 | 44:15.72 | 5:24.40 | 199197 | 223536
13 | 49:40.37 | 2:44.00 | 223537 | 235836
14 | 52:24.37 | 3:27.00 | 235837 | 251361

Характеристики диапазона извлечения и сообщения об ошибках

Выбранный диапазон

Имя файла C:\GARBAGE – 1998 – VERSION 2-0 (BVCP-6119)\Garbage – Version 2.0.wav

Пиковый уровень 100.0 %
Скорость извлечения 2.1 X
Качество диапазона 100.0 %
CRC теста E3A8C50F
CRC копии E3A8C50F
Копирование… OK

Ошибок не произошло

AccurateRip: сводка

Трек 1 : извлечено точно (доверие 3) [59583B36] (AR v2)
Трек 2 : извлечено точно (доверие 3) [1E1CE05B] (AR v2)
Трек 3 : извлечено точно (доверие 3) [4EF8FFB5] (AR v2)
Трек 4 : извлечено точно (доверие 3) [93A22E63] (AR v2)
Трек 5 : извлечено точно (доверие 3) [633765D3] (AR v2)
Трек 6 : извлечено точно (доверие 3) [71547EB6] (AR v2)
Трек 7 : извлечено точно (доверие 3) [58241F56] (AR v2)
Трек 8 : извлечено точно (доверие 3) [DF1B8AC5] (AR v2)
Трек 9 : извлечено точно (доверие 3) [F21FF80C] (AR v2)
Трек 10 : извлечено точно (доверие 3) [9B8E66FF] (AR v2)
Трек 11 : извлечено точно (доверие 3) [E3B3A9BE] (AR v2)
Трек 12 : извлечено точно (доверие 3) [C31A4285] (AR v2)
Трек 13 : извлечено точно (доверие 3) [8C84C1AF] (AR v2)
Трек 14 : извлечено точно (доверие 3) [1BD8B05E] (AR v2)

Все треки извлечены точно

Конец отчёта

—- CUETools DB Plugin V2.1.6

[CTDB TOCID: kIGUOvPAVucbz0FbZoVLP0FvPkk-] found
Submit result: kIGUOvPAVucbz0FbZoVLP0FvPkk- has been confirmed
Track | CTDB Status
1 | (4/4) Accurately ripped
2 | (4/4) Accurately ripped
3 | (4/4) Accurately ripped
4 | (4/4) Accurately ripped
5 | (4/4) Accurately ripped
6 | (4/4) Accurately ripped
7 | (4/4) Accurately ripped
8 | (4/4) Accurately ripped
9 | (4/4) Accurately ripped
10 | (4/4) Accurately ripped
11 | (4/4) Accurately ripped
12 | (4/4) Accurately ripped
13 | (4/4) Accurately ripped
14 | (4/4) Accurately ripped

==== Контрольная сумма отчёта A6B6C2256CE09539B6107A1EBA0E35A78D369C67C48D6C22B37B0D60690C908F ====

REM GENRE Rock
REM DATE 1998
REM DISCID CD0D170E
REM COMMENT “ExactAudioCopy v1.0b6”
PERFORMER “Garbage”
TITLE “Version 2.0”
FILE “Garbage – Version 2.0.flac” WAVE
TRACK 01 AUDIO
TITLE “Temptation Waits”
PERFORMER “Garbage”
INDEX 00 00:00:00
INDEX 01 00:00:37
TRACK 02 AUDIO
TITLE “I Think I’m Paranoid”
PERFORMER “Garbage”
INDEX 01 04:37:52
TRACK 03 AUDIO
TITLE “When I Grow Up”
PERFORMER “Garbage”
INDEX 01 08:15:62
TRACK 04 AUDIO
TITLE “Medication”
PERFORMER “Garbage”
INDEX 00 11:38:06
INDEX 01 11:40:25
TRACK 05 AUDIO
TITLE “Special”
PERFORMER “Garbage”
INDEX 00 15:47:13
INDEX 01 15:48:37
TRACK 06 AUDIO
TITLE “Hammering In My Head”
PERFORMER “Garbage”
INDEX 01 19:32:02
TRACK 07 AUDIO
TITLE “Push It”
PERFORMER “Garbage”
INDEX 01 24:24:07
TRACK 08 AUDIO
TITLE “The Trick Is To Keep Breathing”
PERFORMER “Garbage”
INDEX 01 28:26:47
TRACK 09 AUDIO
TITLE “Dumb”
PERFORMER “Garbage”
INDEX 01 32:38:37
TRACK 10 AUDIO
TITLE “Sleep Together”
PERFORMER “Garbage”
INDEX 01 36:28:55
TRACK 11 AUDIO
TITLE “Wicked Ways”
PERFORMER “Garbage”
INDEX 01 40:32:17
TRACK 12 AUDIO
TITLE “You Look So Fine”
PERFORMER “Garbage”
INDEX 00 44:14:56
INDEX 01 44:15:72
TRACK 13 AUDIO
TITLE “Lick The Pavement”
PERFORMER “Garbage”
INDEX 00 49:40:01
INDEX 01 49:40:37
TRACK 14 AUDIO
TITLE “Thirteen”
PERFORMER “Garbage”
INDEX 00 52:22:38
INDEX 01 52:24:37


Leave a Reply

Your email address will not be published. Required fields are marked *

This site uses Akismet to reduce spam. Learn how your comment data is processed.