Garbage – Version 2.0 (Enhanced)




[Total: 0    Average: 0/5]

Artist: Garbage
Year: 1998
Genre: Rock
Notes: Discogs
Add. Notes: Enhanced
Cover incl.: Yes
Encoder: FLAC
Bitrate: ~1000 kBit/s (44.1 kHz/16 Bit/s)
Log & Cue incl.: Yes
Size: 404,72 MB
Password: “slam” (without ” “)


All Downloads/Hosters are compatible

Download 1
Share-online.biz
KatFile.com
Rapidgator.net
Mexa.sh
Download 2
Share-online.biz
KatFile.com
Rapidgator.net
Mexa.sh

Tracklist:

1 - Temptation Waits - 4:36
2 - I Think I'm Paranoid - 3:38
3 - When I Grow Up - 3:24
4 - Medication - 4:08
5 - Special - 3:43
6 - Hammering In My Head - 4:52
7 - Push It - 4:02
8 - The Trick Is To Keep Breathing - 4:11
9 - Dumb - 3:50
10 - Sleep Together - 4:03
11 - Wicked Ways - 3:43
12 - You Look So Fine - 5:24

+ CD-Rom Part

EAC-Log, CUE-Sheed & NFO:

Click to open spoiler
Exact Audio Copy V1.1 from 23. June 2015

Отчёт EAC об извлечении, выполненном 30. июня 2016, 16:10

Garbage / Version 2.0 (TRASH19)

Дисковод: GENERIC DVD-RAM MLT05 Adapter: 1 ID: 1

Режим чтения : Достоверность
Использование точного потока : Да
Отключение кэша аудио : Да
Использование указателей C2 : Нет

Коррекция смещения при чтении : 102
Способность читать области Lead-in и Lead-out : Нет
Заполнение пропущенных сэмплов тишиной : Да
Удаление блоков с тишиной в начале и конце : Нет
При вычислениях CRC использовались нулевые сэмплы : Да
Интерфейс : Встроенный Win32-интерфейс для Win NT/2000

Выходной формат : Внутренние WAV-операции
Формат сэмплов : 44.100 Гц; 16 бит; стерео

TOC извлечённого CD

Трек | Старт | Длительность | Начальный сектор | Конечный сектор
———————————————————————
1 | 0:00.00 | 4:36.52 | 0 | 20751
2 | 4:36.52 | 3:38.05 | 20752 | 37106
3 | 8:14.57 | 3:24.30 | 37107 | 52436
4 | 11:39.12 | 4:08.08 | 52437 | 71044
5 | 15:47.20 | 3:43.52 | 71045 | 87821
6 | 19:30.72 | 4:52.03 | 87822 | 109724
7 | 24:23.00 | 4:02.40 | 109725 | 127914
8 | 28:25.40 | 4:11.60 | 127915 | 146799
9 | 32:37.25 | 3:50.22 | 146800 | 164071
10 | 36:27.47 | 4:03.35 | 164072 | 182331
11 | 40:31.07 | 3:43.45 | 182332 | 199101
12 | 44:14.52 | 5:23.45 | 199102 | 223371
13 | 52:10.22 | 12:27.49 | 234772 | 290845

Характеристики диапазона извлечения и сообщения об ошибках

Выбранный диапазон

Имя файла G:\Garbage – 1998 – Version 20 (TRASH19)\Garbage – Version 2.0 (TRASH19).wav

Пиковый уровень 98.0 %
Скорость извлечения 2.4 X
Качество диапазона 100.0 %
CRC теста 6782BAB8
CRC копии 6782BAB8
Копирование… OK

Ошибок не произошло

AccurateRip: сводка

Трек 1 : извлечено точно (доверие 1) [1146835E] (AR v2)
Трек 2 : извлечено точно (доверие 1) [6E758A89] (AR v2)
Трек 3 : извлечено точно (доверие 1) [FA7AC91D] (AR v2)
Трек 4 : извлечено точно (доверие 1) [D760C6FC] (AR v2)
Трек 5 : извлечено точно (доверие 1) [6A57F057] (AR v2)
Трек 6 : извлечено точно (доверие 1) [F6BA4AD6] (AR v2)
Трек 7 : извлечено точно (доверие 1) [6FCD368D] (AR v2)
Трек 8 : извлечено точно (доверие 1) [EC19EC65] (AR v2)
Трек 9 : извлечено точно (доверие 1) [4638274A] (AR v2)
Трек 10 : извлечено точно (доверие 1) [BFECE95B] (AR v2)
Трек 11 : извлечено точно (доверие 1) [82716153] (AR v2)
Трек 12 : извлечено точно (доверие 1) [5DB9EBA9] (AR v2)

Все треки извлечены точно

Конец отчёта

—- CUETools DB Plugin V2.1.6

[CTDB TOCID: WP02URklUCEAKZsCMAv20O7J0HY-] disk not present in database
Submit result: WP02URklUCEAKZsCMAv20O7J0HY- has been uploaded

==== Контрольная сумма отчёта 69A103FC1D870B653217DCFE0AE6ECDB6DAD57145E84EF42C0A855FAA2AEBF8C ====

REM GENRE Rock
REM DATE 1998
REM DISCID C20F250D
REM COMMENT “ExactAudioCopy v1.1”
PERFORMER “Garbage”
TITLE “Version 2.0 (TRASH19)”
FILE “Garbage – Version 2.0 (TRASH19).flac” WAVE
TRACK 01 AUDIO
TITLE “Temptation Waits”
PERFORMER “Garbage”
INDEX 01 00:00:00
TRACK 02 AUDIO
TITLE “I Think I’m Paranoid”
PERFORMER “Garbage”
INDEX 01 04:36:52
TRACK 03 AUDIO
TITLE “When I Grow Up”
PERFORMER “Garbage”
INDEX 01 08:14:57
TRACK 04 AUDIO
TITLE “Medication”
PERFORMER “Garbage”
INDEX 00 11:36:55
INDEX 01 11:39:12
TRACK 05 AUDIO
TITLE “Special”
PERFORMER “Garbage”
INDEX 00 15:46:00
INDEX 01 15:47:20
TRACK 06 AUDIO
TITLE “Hammering in My Head”
PERFORMER “Garbage”
INDEX 01 19:30:72
TRACK 07 AUDIO
TITLE “Push It”
PERFORMER “Garbage”
INDEX 01 24:23:00
TRACK 08 AUDIO
TITLE “The Trick is to Keep Breathing”
PERFORMER “Garbage”
INDEX 01 28:25:40
TRACK 09 AUDIO
TITLE “Dumb”
PERFORMER “Garbage”
INDEX 01 32:37:25
TRACK 10 AUDIO
TITLE “Sleep Together”
PERFORMER “Garbage”
INDEX 01 36:27:47
TRACK 11 AUDIO
TITLE “Wicked Ways”
PERFORMER “Garbage”
INDEX 01 40:31:07
TRACK 12 AUDIO
TITLE “You Look so Fine”
PERFORMER “Garbage”
INDEX 00 44:13:40
INDEX 01 44:14:52


Spread the Download

Leave a Reply

Your email address will not be published. Required fields are marked *

Enter the text from the image below
 

This site uses Akismet to reduce spam. Learn how your comment data is processed.