Garbage – The Absolute Collection




[Total: 0    Average: 0/5]

Artist: Garbage
Year: 2012
Genre: Rock
Notes: Discogs
Add. Notes:
Cover incl.: No
Encoder: FLAC
Bitrate: ~1000 kBit/s (44.1 kHz/16 Bit/s)
Log & Cue incl.: Yes
Size: 568,2 MB
Password: “slam” (without ” “)


All Downloads/Hosters are compatible

Download 1
Share-online.biz
KatFile.com
Rapidgator.net
Download 2
Share-online.biz
KatFile.com
Rapidgator.net

Tracklist:

1. Cherry Lips (Go Baby Go) 
2. Stupid Girl 
3. Androgyny 
4. I Think I'm Paranoid 
5. Vow 
6. Bleed Like Me 
7. Supervixen 
8. Blood For Poppies 
9. When I Grow Up 
10. Why Do You Love Me 
11. Big Bright World 
12. Special 
13. Only Happy When It Rains 
14. Shut Your Mouth 
15. Queer 
16. Tell Me Where It Hurts 
17. Breaking Up The Girl 
18. Milk 
19. Push It 
20. # 1 Crush

EAC-Log, CUE-Sheed & NFO:

Click to open spoiler
Exact Audio Copy V1.0 beta 3 from 29. August 2011

Отчёт EAC об извлечении, выполненном 30. сентября 2013, 1:09

Garbage / Absolute Collection

Дисковод: ASUS BW-12B1ST Adapter: 3 ID: 0

Режим чтения : Достоверность
Использование точного потока : Да
Отключение кэша аудио : Да
Использование указателей C2 : Нет

Коррекция смещения при чтении : 6
Способность читать области Lead-in и Lead-out : Нет
Заполнение пропущенных сэмплов тишиной : Да
Удаление блоков с тишиной в начале и конце : Нет
При вычислениях CRC использовались нулевые сэмплы : Да
Интерфейс : Встроенный Win32-интерфейс для Win NT/2000

Выходной формат : Внутренние WAV-операции
Формат сэмплов : 44.100 Гц; 16 бит; стерео

TOC извлечённого CD

Трек | Старт | Длительность | Начальный сектор | Конечный сектор
———————————————————————
1 | 0:00.00 | 3:13.60 | 0 | 14534
2 | 3:13.60 | 4:19.10 | 14535 | 33969
3 | 7:32.70 | 3:10.50 | 33970 | 48269
4 | 10:43.45 | 3:38.25 | 48270 | 64644
5 | 14:21.70 | 4:32.27 | 64645 | 85071
6 | 18:54.22 | 4:00.32 | 85072 | 103103
7 | 22:54.54 | 3:57.10 | 103104 | 120888
8 | 26:51.64 | 3:40.50 | 120889 | 137438
9 | 30:32.39 | 3:23.15 | 137439 | 152678
10 | 33:55.54 | 3:53.05 | 152679 | 170158
11 | 37:48.59 | 3:36.55 | 170159 | 186413
12 | 41:25.39 | 3:47.37 | 186414 | 203475
13 | 45:13.01 | 3:47.30 | 203476 | 220530
14 | 49:00.31 | 3:26.62 | 220531 | 236042
15 | 52:27.18 | 4:37.50 | 236043 | 256867
16 | 57:04.68 | 4:10.72 | 256868 | 275689
17 | 61:15.65 | 3:34.07 | 275690 | 291746
18 | 64:49.72 | 3:50.50 | 291747 | 309046
19 | 68:40.47 | 4:02.70 | 309047 | 327266
20 | 72:43.42 | 4:46.08 | 327267 | 348724

Характеристики диапазона извлечения и сообщения об ошибках

Выбранный диапазон

Имя файла D:\EAC\Garbage – 2012 – Absolute Collection (Stun Volume – LIB45CD)\Garbage – 2012 – Absolute Collection.wav

Пиковый уровень 100.0 %
Скорость извлечения 3.9 X
Качество диапазона 99.9 %
CRC теста 3D4480C0
CRC копии 3D4480C0
Копирование… OK

Ошибок не произошло

AccurateRip: сводка

Трек 1 отсутствует в базе данных
Трек 2 отсутствует в базе данных
Трек 3 отсутствует в базе данных
Трек 4 отсутствует в базе данных
Трек 5 отсутствует в базе данных
Трек 6 отсутствует в базе данных
Трек 7 отсутствует в базе данных
Трек 8 отсутствует в базе данных
Трек 9 отсутствует в базе данных
Трек 10 отсутствует в базе данных
Трек 11 отсутствует в базе данных
Трек 12 отсутствует в базе данных
Трек 13 отсутствует в базе данных
Трек 14 отсутствует в базе данных
Трек 15 отсутствует в базе данных
Трек 16 отсутствует в базе данных
Трек 17 отсутствует в базе данных
Трек 18 отсутствует в базе данных
Трек 19 отсутствует в базе данных
Трек 20 отсутствует в базе данных

Ни одного трека нет в базе AccurateRip

Конец отчёта

==== Контрольная сумма отчёта 2992B9098DA25F7D478AC4ABCE4591B1B7BFC2E5B268856457B52291C83AD83D ====

REM GENRE Indie
REM DATE 2012
REM DISCID 29122914
REM COMMENT “ExactAudioCopy v1.0b3”
PERFORMER “Garbage”
TITLE “The Absolute Collection”
FILE “Garbage – 2012 – The Absolute Collection.flac” WAVE
TRACK 01 AUDIO
TITLE “Cherry Lips (Go Baby Go)”
PERFORMER “Garbage”
ISRC 000000000000
INDEX 01 00:00:00
TRACK 02 AUDIO
TITLE “Stupid Girl”
PERFORMER “Garbage”
ISRC 000000000000
INDEX 01 03:13:60
TRACK 03 AUDIO
TITLE “Androgyny”
PERFORMER “Garbage”
ISRC 000000000000
INDEX 01 07:32:70
TRACK 04 AUDIO
TITLE “I Think I’m Paranoid”
PERFORMER “Garbage”
ISRC 000000000000
INDEX 01 10:43:45
TRACK 05 AUDIO
TITLE “Vow”
PERFORMER “Garbage”
ISRC 000000000000
INDEX 01 14:21:70
TRACK 06 AUDIO
TITLE “Bleed Like Me”
PERFORMER “Garbage”
ISRC 000000000000
INDEX 01 18:54:22
TRACK 07 AUDIO
TITLE “Supervixen”
PERFORMER “Garbage”
ISRC 000000000000
INDEX 01 22:54:54
TRACK 08 AUDIO
TITLE “Blood For Poppies”
PERFORMER “Garbage”
ISRC 000000000000
INDEX 01 26:51:64
TRACK 09 AUDIO
TITLE “When I Grow Up”
PERFORMER “Garbage”
ISRC 000000000000
INDEX 01 30:32:39
TRACK 10 AUDIO
TITLE “Why Do You Love Me”
PERFORMER “Garbage”
ISRC 000000000000
INDEX 01 33:55:54
TRACK 11 AUDIO
TITLE “Big Bright World”
PERFORMER “Garbage”
ISRC 000000000000
INDEX 01 37:48:59
TRACK 12 AUDIO
TITLE “Special”
PERFORMER “Garbage”
ISRC 000000000000
INDEX 01 41:25:39
TRACK 13 AUDIO
TITLE “Only Happy When It Rains”
PERFORMER “Garbage”
ISRC 000000000000
INDEX 01 45:13:01
TRACK 14 AUDIO
TITLE “Shut Your Mouth”
PERFORMER “Garbage”
ISRC 000000000000
INDEX 01 49:00:31
TRACK 15 AUDIO
TITLE “Queer”
PERFORMER “Garbage”
ISRC 000000000000
INDEX 01 52:27:18
TRACK 16 AUDIO
TITLE “Tell Me Where It Hurts”
PERFORMER “Garbage”
ISRC 000000000000
INDEX 01 57:04:68
TRACK 17 AUDIO
TITLE “Breaking Up The Girl”
PERFORMER “Garbage”
ISRC 000000000000
INDEX 01 61:15:65
TRACK 18 AUDIO
TITLE “Milk”
PERFORMER “Garbage”
ISRC 000000000000
INDEX 01 64:49:72
TRACK 19 AUDIO
TITLE “Push It”
PERFORMER “Garbage”
ISRC 000000000000
INDEX 01 68:40:47
TRACK 20 AUDIO
TITLE “#1 Crush”
PERFORMER “Garbage”
ISRC 000000000000
INDEX 01 72:43:42


Spread the Download

Leave a Reply

Your email address will not be published. Required fields are marked *

Enter the text from the image below
 

This site uses Akismet to reduce spam. Learn how your comment data is processed.