Garbage – Strange Little Birds (Japanese Edition)




Artist: Garbage
Year: 2016
Genre: Alternative
Notes: Discogs
Add. Notes: Japanese Edition
Cover incl.: Yes
Encoder: FLAC
Bitrate: ~1000 kBit/s (44.1 kHz/16 Bit/s)
Log & Cue incl.: Yes
Size: 372,09 MB
Password: “slam” (without ” “)


All Downloads/Hosters are compatible

Download 1
Turbobit.net
KatFile.com
Rapidgator.net
Download 2
Turbobit.net
KatFile.com
Rapidgator.net

Tracklist:

1. Sometimes
2. Empty
3. Blackout
4. If I Lost You
5. Night Drive Loneliness
6. Even Though Our Love Is Doomed
7. Magnetized
8. We Never Tell
9. So We Can Stay Alive
10. Teaching Little Fingers To Play
11. Amends

EAC-Log, CUE-Sheed & NFO:

Click to open spoiler
Exact Audio Copy V1.1 from 23. June 2015

Отчёт EAC об извлечении, выполненном 3. июля 2016, 21:27

Garbage / Strange Little Birds

Дисковод: ASUS BW-12B1ST Adapter: 1 ID: 0

Режим чтения : Достоверность
Использование точного потока : Да
Отключение кэша аудио : Да
Использование указателей C2 : Нет

Коррекция смещения при чтении : 6
Способность читать области Lead-in и Lead-out : Нет
Заполнение пропущенных сэмплов тишиной : Да
Удаление блоков с тишиной в начале и конце : Нет
При вычислениях CRC использовались нулевые сэмплы : Да
Интерфейс : Встроенный Win32-интерфейс для Win NT/2000

Выходной формат : Внутренние WAV-операции
Формат сэмплов : 44.100 Гц; 16 бит; стерео

TOC извлечённого CD

Трек | Старт | Длительность | Начальный сектор | Конечный сектор
———————————————————————
1 | 0:00.00 | 2:52.05 | 0 | 12904
2 | 2:52.05 | 3:54.51 | 12905 | 30505
3 | 6:46.56 | 6:32.44 | 30506 | 59949
4 | 13:19.25 | 4:11.59 | 59950 | 78833
5 | 17:31.09 | 5:24.38 | 78834 | 103171
6 | 22:55.47 | 5:26.40 | 103172 | 127661
7 | 28:22.12 | 3:54.63 | 127662 | 145274
8 | 32:17.00 | 4:25.27 | 145275 | 165176
9 | 36:42.27 | 6:01.28 | 165177 | 192279
10 | 42:43.55 | 3:58.10 | 192280 | 210139
11 | 46:41.65 | 6:03.74 | 210140 | 237438

Характеристики диапазона извлечения и сообщения об ошибках

Выбранный диапазон

Имя файла D:\EAC\Garbage – 2016 – Strange Little Birds (Stun Volume, Hostess Entertainment Unlimited – HSE-3446)\Garbage – 2016 – Strange Little Birds.wav

Пиковый уровень 100.0 %
Скорость извлечения 3.2 X
Качество диапазона 100.0 %
CRC теста 3EA33A5F
CRC копии 3EA33A5F
Копирование… OK

Ошибок не произошло

AccurateRip: сводка

Трек 1 : извлечено точно (доверие 2) [4E01E539] (AR v2)
Трек 2 : извлечено точно (доверие 2) [F8CA0E76] (AR v2)
Трек 3 : извлечено точно (доверие 2) [72E04C91] (AR v2)
Трек 4 : извлечено точно (доверие 2) [06E65099] (AR v2)
Трек 5 : извлечено точно (доверие 2) [58FA1573] (AR v2)
Трек 6 : извлечено точно (доверие 2) [D43E4573] (AR v2)
Трек 7 : извлечено точно (доверие 2) [6862DC14] (AR v2)
Трек 8 : извлечено точно (доверие 2) [B614BC62] (AR v2)
Трек 9 : извлечено точно (доверие 2) [E9D8A837] (AR v2)
Трек 10 : извлечено точно (доверие 2) [33D55FF3] (AR v2)
Трек 11 точность не определена (достоверность 31) [694BA523], AccurateRip вернул [6ADCA851] (AR v2)

10 трек(и) скопированы точно
1 трек(и) не удалось проверить на точность

Некоторые треки не прошли проверку на точность

Конец отчёта

—- CUETools DB Plugin V2.1.6

[CTDB TOCID: hL16pQhcwIWC1AlbQ7yFNrouB7s-] found
Submit result: hL16pQhcwIWC1AlbQ7yFNrouB7s- has been confirmed
Track | CTDB Status
1 | (118/118) Accurately ripped
2 | (118/118) Accurately ripped
3 | (118/118) Accurately ripped
4 | (118/118) Accurately ripped
5 | (118/118) Accurately ripped
6 | (118/118) Accurately ripped
7 | (118/118) Accurately ripped
8 | (118/118) Accurately ripped
9 | (118/118) Accurately ripped
10 | (118/118) Accurately ripped
11 | (118/118) Accurately ripped

==== Контрольная сумма отчёта AAA6CECFF4B215689F9DCB17DE438C0843F159B39C3B888BF2FB5D4271FF5115 ====

REM GENRE Alternative
REM DATE 2016
REM DISCID 870C5D0B
REM COMMENT “ExactAudioCopy v1.1”
CATALOG 5414939937965
PERFORMER “Garbage”
TITLE “Strange Little Birds”
FILE “Garbage – 2016 – Strange Little Birds.flac” WAVE
TRACK 01 AUDIO
TITLE “Sometimes”
PERFORMER “Garbage”
ISRC QMRSZ1600101
INDEX 01 00:00:00
TRACK 02 AUDIO
TITLE “Empty”
PERFORMER “Garbage”
ISRC QMRSZ1600102
INDEX 01 02:52:05
TRACK 03 AUDIO
TITLE “Blackout”
PERFORMER “Garbage”
ISRC QMRSZ1600103
INDEX 01 06:46:56
TRACK 04 AUDIO
TITLE “If I Lost You”
PERFORMER “Garbage”
ISRC QMRSZ1600104
INDEX 01 13:19:25
TRACK 05 AUDIO
TITLE “Night Drive Loneliness”
PERFORMER “Garbage”
ISRC QMRSZ1600105
INDEX 01 17:31:09
TRACK 06 AUDIO
TITLE “Even Though Our Love Is Doomed”
PERFORMER “Garbage”
ISRC QMRSZ1600106
INDEX 01 22:55:47
TRACK 07 AUDIO
TITLE “Magnetized”
PERFORMER “Garbage”
ISRC QMRSZ1600107
INDEX 01 28:22:12
TRACK 08 AUDIO
TITLE “We Never Tell”
PERFORMER “Garbage”
ISRC QMRSZ1600108
INDEX 01 32:17:00
TRACK 09 AUDIO
TITLE “So We Can Stay Alive”
PERFORMER “Garbage”
ISRC QMRSZ1600109
INDEX 01 36:42:27
TRACK 10 AUDIO
TITLE “Teaching Little Fingers to Play”
PERFORMER “Garbage”
ISRC QMRSZ1600110
INDEX 01 42:43:55
TRACK 11 AUDIO
TITLE “Amends”
PERFORMER “Garbage”
ISRC QMRSZ1600111
INDEX 01 46:41:65


Leave a Reply

Your email address will not be published. Required fields are marked *

This site uses Akismet to reduce spam. Learn how your comment data is processed.