Garbage – Special Collection




Artist: Garbage
Year: 2002
Genre: Rock
Notes: Discogs
Add. Notes:
Cover incl.: Yes
Encoder: FLAC
Bitrate: ~1000 kBit/s (44.1 kHz/16 Bit/s)
Log & Cue incl.: Yes
Size: 159,76 MB
Password: “slam” (without ” “)


All Downloads/Hosters are compatible

Download 1
Turbobit.net
NitroFlare.com
KatFile.com
Rapidgator.net
Download 2
Turbobit.net
NitroFlare.com
KatFile.com
Rapidgator.net

Tracklist:

1 - Use Me - 4:37
2 - Enough Is Never Enough - 4:10
3 - Androgyny (The Neptunes Remix) - 3:18
4 - Vow (Live) - 5:13
5 - Cherry Lips (Go Baby Go!) (DJEJ's Go-Go Jam) - 6:11

EAC-Log, CUE-Sheed & NFO:

Click to open spoiler
Exact Audio Copy V1.0 beta 3 from 29. August 2011

Отчёт EAC об извлечении, выполненном 30. сентября 2013, 0:22

Garbage / Special Collection

Дисковод: ASUS BW-12B1ST Adapter: 3 ID: 0

Режим чтения : Достоверность
Использование точного потока : Да
Отключение кэша аудио : Да
Использование указателей C2 : Нет

Коррекция смещения при чтении : 6
Способность читать области Lead-in и Lead-out : Нет
Заполнение пропущенных сэмплов тишиной : Да
Удаление блоков с тишиной в начале и конце : Нет
При вычислениях CRC использовались нулевые сэмплы : Да
Интерфейс : Встроенный Win32-интерфейс для Win NT/2000

Выходной формат : Внутренние WAV-операции
Формат сэмплов : 44.100 Гц; 16 бит; стерео

TOC извлечённого CD

Трек | Старт | Длительность | Начальный сектор | Конечный сектор
———————————————————————
1 | 0:00.00 | 4:36.67 | 0 | 20766
2 | 4:36.67 | 4:09.72 | 20767 | 39513
3 | 8:46.64 | 3:17.43 | 39514 | 54331
4 | 12:04.32 | 5:13.19 | 54332 | 77825
5 | 17:17.51 | 6:11.07 | 77826 | 105657

Характеристики диапазона извлечения и сообщения об ошибках

Выбранный диапазон

Имя файла D:\EAC\Garbage – 2002 – Special Collection (Sony Records International ‎- SICP 66)\Garbage – 2002 – Special Collection.wav

Пиковый уровень 100.0 %
Скорость извлечения 5.9 X
Качество диапазона 100.0 %
CRC теста E3068D07
CRC копии E3068D07
Копирование… OK

Ошибок не произошло

AccurateRip: сводка

Трек 1 : извлечено точно (доверие 2) [60D935DD] (AR v2)
Трек 2 : извлечено точно (доверие 2) [FB028398] (AR v2)
Трек 3 : извлечено точно (доверие 2) [C53EB6B8] (AR v2)
Трек 4 : извлечено точно (доверие 2) [FD5C890A] (AR v2)
Трек 5 : извлечено точно (доверие 2) [A8774B59] (AR v2)

Все треки извлечены точно

Конец отчёта

==== Контрольная сумма отчёта 71963DD79089C969F1B1AC06897D48603394CCB8E2B7B7DBDAF610A15B8CDB52 ====

REM GENRE “Pop Rock”
REM DATE 2002
REM DISCID 3E058005
REM COMMENT “ExactAudioCopy v1.0b3”
PERFORMER “Garbage”
TITLE “Special Collection”
FILE “Garbage – 2002 – Special Collection.flac” WAVE
TRACK 01 AUDIO
TITLE “Use Me”
PERFORMER “Garbage”
ISRC GBBUF0100984
INDEX 01 00:00:00
TRACK 02 AUDIO
TITLE “Enough Is Never Enough”
PERFORMER “Garbage”
ISRC GBBUF0100982
INDEX 00 04:35:17
INDEX 01 04:36:67
TRACK 03 AUDIO
TITLE “Androgyny (The Neptunes Remix)”
PERFORMER “Garbage”
ISRC GBBUF0100944
INDEX 00 08:45:13
INDEX 01 08:46:64
TRACK 04 AUDIO
TITLE “Vow (Live)”
PERFORMER “Garbage”
ISRC GBBUF9902916
INDEX 00 12:02:57
INDEX 01 12:04:32
TRACK 05 AUDIO
TITLE “Cherry Lips (Go Baby Go!) (DJEJ’s Go-Go- Jam)”
PERFORMER “Garbage”
ISRC GBBUF0100989
INDEX 00 17:16:00
INDEX 01 17:17:51


Leave a Reply

Your email address will not be published. Required fields are marked *

Enter the text from the image below
 

This site uses Akismet to reduce spam. Learn how your comment data is processed.