Garbage – Not Your Kind Of People




Artist: Garbage
Year: 2012
Genre: Rock
Notes: Discogs
Add. Notes:
Cover incl.: Yes
Encoder: FLAC
Bitrate: ~1000 kBit/s (44.1 kHz/16 Bit/s)
Log & Cue incl.: Yes
Size: 364,72 MB
Password: “slam” (without ” “)


All Downloads/Hosters are compatible

Download 1
Turbobit.net
KatFile.com
Rapidgator.net
Download 2
Turbobit.net
KatFile.com
Rapidgator.net

Tracklist:

1 - Automatic Systematic Habit - 3:18
2 - Big Bright World - 3:35
3 - Blood For Poppies - 3:40
4 - Control - 4:12
5 - Not Your Kind Of People - 5:00
6 - Felt - 3:26
7 - I Hate Love - 3:55
8 - Sugar - 4:01
9 - Battle In Me - 4:16
10 - Man On A Wire - 3:08
11 - Beloved Freak - 4:30

EAC-Log, CUE-Sheed & NFO:

Click to open spoiler
X Lossless Decoder version 20141129 (148.1)

XLD extraction logfile from 2015-02-27 17:23:56 +0300

Garbage / Not Your Kind Of People [Stun Volume STNVOL-10, EU]

Used drive : HL-DT-ST DVDRAM GU40N (revision RR01)
Media type : Pressed CD

Ripper mode : XLD Secure Ripper
Disable audio cache : OK for the drive with a cache less than 1375KiB
Make use of C2 pointers : NO
Read offset correction : 103
Max retry count : 20
Gap status : Analyzed, Appended

TOC of the extracted CD
Track | Start | Length | Start sector | End sector
———————————————————
1 | 00:00:00 | 03:18:08 | 0 | 14857
2 | 03:18:08 | 03:35:55 | 14858 | 31037
3 | 06:53:63 | 03:39:50 | 31038 | 47512
4 | 10:33:38 | 04:12:36 | 47513 | 66448
5 | 14:45:74 | 04:59:06 | 66449 | 88879
6 | 19:45:05 | 03:26:57 | 88880 | 104386
7 | 23:11:62 | 03:54:66 | 104387 | 122002
8 | 27:06:53 | 04:00:42 | 122003 | 140044
9 | 31:07:20 | 04:15:60 | 140045 | 159229
10 | 35:23:05 | 03:08:54 | 159230 | 173383
11 | 38:31:59 | 04:29:57 | 173384 | 193615

List of alternate offset correction values
# | Absolute | Relative | Confidence
——————————————
1 | -543 | -646 | 4
2 | -561 | -664 | 3

AccurateRip Summary (DiscID: 00116a9b-00981b4e-900a150b)
Track 01 : OK (v1+v2, confidence 129/136)
Track 02 : OK (v1+v2, confidence 129/136)
Track 03 : OK (v1+v2, confidence 129/136)
Track 04 : OK (v1+v2, confidence 130/137)
Track 05 : OK (v1+v2, confidence 129/136)
Track 06 : OK (v1+v2, confidence 129/136)
Track 07 : OK (v1+v2, confidence 128/135)
Track 08 : OK (v1+v2, confidence 127/134)
Track 09 : OK (v1+v2, confidence 129/136)
Track 10 : OK (v1+v2, confidence 129/136)
Track 11 : OK (v1+v2, confidence 127/134)
->All tracks accurately ripped.

All Tracks
Filename : /CD/Garbage – 2012 – Not Your Kind Of People [Stun Volume STNVOL-10, EU]/Garbage – Not Your Kind Of People [Stun Volume STNVOL-10, EU].flac
Album gain : -10.90 dB
Peak : 1.000000
CRC32 hash (test run) : 56E95778
CRC32 hash : 56E95778
CRC32 hash (skip zero) : 7F67ADCB
Statistics
Read error : 0
Jitter error (maybe fixed) : 0
Retry sector count : 0
Damaged sector count : 0

Track 01
Pre-gap length : 00:02:00

Track gain : -10.67 dB
Peak : 0.966064
CRC32 hash (test run) : F8F1CA8F
CRC32 hash : F8F1CA8F
CRC32 hash (skip zero) : 0E73339E
AccurateRip v1 signature : 73552EDD
AccurateRip v2 signature : 6EAFA89F
->Accurately ripped (v1+v2, confidence 24+105/136)
Statistics
Read error : 0
Jitter error (maybe fixed) : 0
Retry sector count : 0
Damaged sector count : 0

Track 02
Pre-gap length : 00:00:28

Track gain : -10.66 dB
Peak : 0.966064
CRC32 hash (test run) : 847A929A
CRC32 hash : 847A929A
CRC32 hash (skip zero) : AAE01D76
AccurateRip v1 signature : 1A6BBCF1
AccurateRip v2 signature : CF26EDB2
->Accurately ripped (v1+v2, confidence 24+105/136)
Statistics
Read error : 0
Jitter error (maybe fixed) : 0
Retry sector count : 0
Damaged sector count : 0

Track 03
Pre-gap length : 00:01:00

Track gain : -11.14 dB
Peak : 1.000000
CRC32 hash (test run) : 82F7082A
CRC32 hash : 82F7082A
CRC32 hash (skip zero) : EB8C7D8B
AccurateRip v1 signature : 8291B4F4
AccurateRip v2 signature : C768C393
->Accurately ripped (v1+v2, confidence 24+105/136)
Statistics
Read error : 0
Jitter error (maybe fixed) : 0
Retry sector count : 0
Damaged sector count : 0

Track 04
Pre-gap length : 00:01:27

Track gain : -10.87 dB
Peak : 1.000000
CRC32 hash (test run) : 0664F9B2
CRC32 hash : 0664F9B2
CRC32 hash (skip zero) : EE5916CF
AccurateRip v1 signature : A13D287E
AccurateRip v2 signature : 7DD2FD59
->Accurately ripped (v1+v2, confidence 25+105/137)
Statistics
Read error : 0
Jitter error (maybe fixed) : 0
Retry sector count : 0
Damaged sector count : 0

Track 05
Pre-gap length : 00:00:39

Track gain : -8.94 dB
Peak : 0.912018
CRC32 hash (test run) : 87977360
CRC32 hash : 87977360
CRC32 hash (skip zero) : 6A0E4EB4
AccurateRip v1 signature : 5C49DC70
AccurateRip v2 signature : 09415413
->Accurately ripped (v1+v2, confidence 25+104/136)
Statistics
Read error : 0
Jitter error (maybe fixed) : 0
Retry sector count : 0
Damaged sector count : 0

Track 06
Pre-gap length : 00:01:67

Track gain : -11.65 dB
Peak : 0.966064
CRC32 hash (test run) : 5C5BD4E5
CRC32 hash : 5C5BD4E5
CRC32 hash (skip zero) : 9B26ABBA
AccurateRip v1 signature : A42C3B60
AccurateRip v2 signature : 54B993CA
->Accurately ripped (v1+v2, confidence 25+104/136)
Statistics
Read error : 0
Jitter error (maybe fixed) : 0
Retry sector count : 0
Damaged sector count : 0

Track 07
Pre-gap length : 00:01:01

Track gain : -9.86 dB
Peak : 0.966064
CRC32 hash (test run) : 7FB3C8C4
CRC32 hash : 7FB3C8C4
CRC32 hash (skip zero) : 282EF8EB
AccurateRip v1 signature : 4465AF9C
AccurateRip v2 signature : 79D109D0
->Accurately ripped (v1+v2, confidence 24+104/135)
Statistics
Read error : 0
Jitter error (maybe fixed) : 0
Retry sector count : 0
Damaged sector count : 0

Track 08
Pre-gap length : 00:00:32

Track gain : -7.36 dB
Peak : 0.966064
CRC32 hash (test run) : BB7F3277
CRC32 hash : BB7F3277
CRC32 hash (skip zero) : DB16D1D3
AccurateRip v1 signature : 2C60DA60
AccurateRip v2 signature : 0A3B0B69
->Accurately ripped (v1+v2, confidence 24+103/134)
Statistics
Read error : 0
Jitter error (maybe fixed) : 0
Retry sector count : 0
Damaged sector count : 0

Track 09
Pre-gap length : 00:01:72

Track gain : -11.62 dB
Peak : 0.966064
CRC32 hash (test run) : AF22B2D6
CRC32 hash : AF22B2D6
CRC32 hash (skip zero) : 58C84335
AccurateRip v1 signature : 0FC37596
AccurateRip v2 signature : 8E04A122
->Accurately ripped (v1+v2, confidence 24+105/136)
Statistics
Read error : 0
Jitter error (maybe fixed) : 0
Retry sector count : 0
Damaged sector count : 0

Track 10
Pre-gap length : 00:01:74

Track gain : -11.71 dB
Peak : 0.966064
CRC32 hash (test run) : FDEBBCD5
CRC32 hash : FDEBBCD5
CRC32 hash (skip zero) : 9ADB1627
AccurateRip v1 signature : A70CE62F
AccurateRip v2 signature : C1710632
->Accurately ripped (v1+v2, confidence 24+105/136)
Statistics
Read error : 0
Jitter error (maybe fixed) : 0
Retry sector count : 0
Damaged sector count : 0

Track 11
Pre-gap length : 00:02:01

Track gain : -8.90 dB
Peak : 0.912018
CRC32 hash (test run) : BA5B11E7
CRC32 hash : BA5B11E7
CRC32 hash (skip zero) : 250C1011
AccurateRip v1 signature : 7A613C31
AccurateRip v2 signature : 513625E3
->Accurately ripped (v1+v2, confidence 23+104/134)
Statistics
Read error : 0
Jitter error (maybe fixed) : 0
Retry sector count : 0
Damaged sector count : 0

No errors occurred

End of status report

—–BEGIN XLD SIGNATURE—–
WYnH3DltpO9i5rUmgag0NzaNPTn7EM0mqIw47q3xlFHJDL30PWSjpxMaZgh2ppHIfaKz94u2OaMh9P7HlBER77gMf42ehs7sgJI.jxi
—–END XLD SIGNATURE—–

TITLE “Not Your Kind Of People”
PERFORMER “Garbage”
CATALOG 0602537002665
REM GENRE “Alternative”
REM DATE “2012”
REM DISCID 900A150B
REM REPLAYGAIN_ALBUM_GAIN -10.90 dB
REM REPLAYGAIN_ALBUM_PEAK 1.000000
FILE “Garbage – Not Your Kind Of People [Stun Volume STNVOL-10, EU].flac” WAVE
TRACK 01 AUDIO
TITLE “Automatic Systematic Habit”
PERFORMER “Garbage”
ISRC USZXT1201655
REM COMMENT “XLD Secure Ripper, Test & Copy, FLAC 1.3.1, Compression Level: High”
REM REPLAYGAIN_TRACK_GAIN -10.67 dB
REM REPLAYGAIN_TRACK_PEAK 0.966064
INDEX 01 00:00:00
TRACK 02 AUDIO
TITLE “Big Bright World”
PERFORMER “Garbage”
ISRC USZXT1201656
REM COMMENT “XLD Secure Ripper, Test & Copy, FLAC 1.3.1, Compression Level: High”
REM REPLAYGAIN_TRACK_GAIN -10.66 dB
REM REPLAYGAIN_TRACK_PEAK 0.966064
INDEX 00 03:17:55
INDEX 01 03:18:08
TRACK 03 AUDIO
TITLE “Blood For Poppies”
PERFORMER “Garbage”
ISRC USZXT1201657
REM COMMENT “XLD Secure Ripper, Test & Copy, FLAC 1.3.1, Compression Level: High”
REM REPLAYGAIN_TRACK_GAIN -11.14 dB
REM REPLAYGAIN_TRACK_PEAK 1.000000
INDEX 00 06:52:63
INDEX 01 06:53:63
TRACK 04 AUDIO
TITLE “Control”
PERFORMER “Garbage”
ISRC USZXT1201658
REM COMMENT “XLD Secure Ripper, Test & Copy, FLAC 1.3.1, Compression Level: High”
REM REPLAYGAIN_TRACK_GAIN -10.87 dB
REM REPLAYGAIN_TRACK_PEAK 1.000000
INDEX 00 10:32:11
INDEX 01 10:33:38
TRACK 05 AUDIO
TITLE “Not Your Kind Of People”
PERFORMER “Garbage”
ISRC USZXT1201659
REM COMMENT “XLD Secure Ripper, Test & Copy, FLAC 1.3.1, Compression Level: High”
REM REPLAYGAIN_TRACK_GAIN -8.94 dB
REM REPLAYGAIN_TRACK_PEAK 0.912018
INDEX 00 14:45:35
INDEX 01 14:45:74
TRACK 06 AUDIO
TITLE “Felt”
PERFORMER “Garbage”
ISRC USZXT1201660
REM COMMENT “XLD Secure Ripper, Test & Copy, FLAC 1.3.1, Compression Level: High”
REM REPLAYGAIN_TRACK_GAIN -11.65 dB
REM REPLAYGAIN_TRACK_PEAK 0.966064
INDEX 00 19:43:13
INDEX 01 19:45:05
TRACK 07 AUDIO
TITLE “I Hate Love”
PERFORMER “Garbage”
ISRC USZXT1201661
REM COMMENT “XLD Secure Ripper, Test & Copy, FLAC 1.3.1, Compression Level: High”
REM REPLAYGAIN_TRACK_GAIN -9.86 dB
REM REPLAYGAIN_TRACK_PEAK 0.966064
INDEX 00 23:10:61
INDEX 01 23:11:62
TRACK 08 AUDIO
TITLE “Sugar”
PERFORMER “Garbage”
ISRC USZXT1201662
REM COMMENT “XLD Secure Ripper, Test & Copy, FLAC 1.3.1, Compression Level: High”
REM REPLAYGAIN_TRACK_GAIN -7.36 dB
REM REPLAYGAIN_TRACK_PEAK 0.966064
INDEX 00 27:06:21
INDEX 01 27:06:53
TRACK 09 AUDIO
TITLE “Battle In Me”
PERFORMER “Garbage”
ISRC USZXT1201663
REM COMMENT “XLD Secure Ripper, Test & Copy, FLAC 1.3.1, Compression Level: High”
REM REPLAYGAIN_TRACK_GAIN -11.62 dB
REM REPLAYGAIN_TRACK_PEAK 0.966064
INDEX 00 31:05:23
INDEX 01 31:07:20
TRACK 10 AUDIO
TITLE “Man On A Wire”
PERFORMER “Garbage”
ISRC USZXT1201664
REM COMMENT “XLD Secure Ripper, Test & Copy, FLAC 1.3.1, Compression Level: High”
REM REPLAYGAIN_TRACK_GAIN -11.71 dB
REM REPLAYGAIN_TRACK_PEAK 0.966064
INDEX 00 35:21:06
INDEX 01 35:23:05
TRACK 11 AUDIO
TITLE “Beloved Freak”
PERFORMER “Garbage”
ISRC USZXT1201665
REM COMMENT “XLD Secure Ripper, Test & Copy, FLAC 1.3.1, Compression Level: High”
REM REPLAYGAIN_TRACK_GAIN -8.90 dB
REM REPLAYGAIN_TRACK_PEAK 0.912018
INDEX 00 38:29:58
INDEX 01 38:31:59


Leave a Reply

Your email address will not be published. Required fields are marked *

This site uses Akismet to reduce spam. Learn how your comment data is processed.