Garbage – Not Your Kind Of People (Japanese Edition)




[Total: 0    Average: 0/5]

Artist: Garbage
Year: 2012
Genre: Rock
Notes: Discogs
Add. Notes: Japanese Edition
Cover incl.: Yes
Encoder: FLAC
Bitrate: ~1000 kBit/s (44.1 kHz/16 Bit/s)
Log & Cue incl.: Yes
Size: 461 MB
Password: “slam” (without ” “)


All Downloads/Hosters are compatible

Download 1
KatFile.com
Turbobit.net
FileFactory.com
Rapidgator.net
Download 2
KatFile.com
Turbobit.net
FileFactory.com
Rapidgator.net

Tracklist:

1 - Automatic Systematic Habit - 3:18
2 - Big Bright World - 3:36
3 - Blood For Poppies - 3:40
4 - Control - 4:13
5 - Not Your Kind Of People - 4:59
6 - Felt - 3:27
7 - I Hate Love - 3:55
8 - Sugar - 4:01
9 - Battle In Me - 4:16
10 - Man On A Wire - 3:09
11 - Beloved Freak - 4:33
12 - The One - 4:45
13 - What Girls Are Made Of - 3:49
14 - Love Like Suicide - 3:51
15 - Bright Tonight - 4:04
16 - Show Me - 5:15

EAC-Log, CUE-Sheed & NFO:

Click to open spoiler
Exact Audio Copy V1.0 beta 3 from 29. August 2011

Отчёт EAC об извлечении, выполненном 11. ноября 2013, 23:03

Garbage / Not Your Kind Of People

Дисковод: ASUS BW-12B1ST Adapter: 3 ID: 0

Режим чтения : Достоверность
Использование точного потока : Да
Отключение кэша аудио : Да
Использование указателей C2 : Нет

Коррекция смещения при чтении : 6
Способность читать области Lead-in и Lead-out : Нет
Заполнение пропущенных сэмплов тишиной : Да
Удаление блоков с тишиной в начале и конце : Нет
При вычислениях CRC использовались нулевые сэмплы : Да
Интерфейс : Встроенный Win32-интерфейс для Win NT/2000

Выходной формат : Внутренние WAV-операции
Формат сэмплов : 44.100 Гц; 16 бит; стерео

TOC извлечённого CD

Трек | Старт | Длительность | Начальный сектор | Конечный сектор
———————————————————————
1 | 0:00.00 | 3:18.05 | 0 | 14854
2 | 3:18.05 | 3:35.56 | 14855 | 31035
3 | 6:53.61 | 3:39.42 | 31036 | 47502
4 | 10:33.28 | 4:12.42 | 47503 | 66444
5 | 14:45.70 | 4:59.05 | 66445 | 88874
6 | 19:45.00 | 3:26.59 | 88875 | 104383
7 | 23:11.59 | 3:54.65 | 104384 | 121998
8 | 27:06.49 | 4:00.43 | 121999 | 140041
9 | 31:07.17 | 4:15.63 | 140042 | 159229
10 | 35:23.05 | 3:08.51 | 159230 | 173380
11 | 38:31.56 | 4:33.02 | 173381 | 193857
12 | 43:04.58 | 4:45.13 | 193858 | 215245
13 | 47:49.71 | 3:49.00 | 215246 | 232420
14 | 51:38.71 | 3:51.20 | 232421 | 249765
15 | 55:30.16 | 4:03.69 | 249766 | 268059
16 | 59:34.10 | 5:14.51 | 268060 | 291660

Характеристики диапазона извлечения и сообщения об ошибках

Выбранный диапазон

Имя файла D:\EAC\Garbage – 2012 – Not Your Kind Of People (Japanese Edition) (Sony Music Japan International Inc. – SICP-3478)\Garbage – 2012 – Not Your Kind Of People.wav

Пиковый уровень 100.0 %
Скорость извлечения 8.3 X
Качество диапазона 100.0 %
CRC теста 6DD6CCAF
CRC копии 6DD6CCAF
Копирование… OK

Ошибок не произошло

AccurateRip: сводка

Трек 1 : извлечено точно (доверие 10) [D4BFA30D] (AR v2)
Трек 2 : извлечено точно (доверие 10) [4C130E7D] (AR v2)
Трек 3 : извлечено точно (доверие 10) [2ADFE1B0] (AR v2)
Трек 4 : извлечено точно (доверие 10) [4F653D4C] (AR v2)
Трек 5 : извлечено точно (доверие 10) [A9225620] (AR v2)
Трек 6 : извлечено точно (доверие 10) [45035658] (AR v2)
Трек 7 : извлечено точно (доверие 10) [5361D30B] (AR v2)
Трек 8 : извлечено точно (доверие 10) [CD6304A9] (AR v2)
Трек 9 : извлечено точно (доверие 10) [FD11FF8D] (AR v2)
Трек 10 : извлечено точно (доверие 10) [C1710632] (AR v2)
Трек 11 : извлечено точно (доверие 10) [CB740724] (AR v2)
Трек 12 : извлечено точно (доверие 10) [376CD0D2] (AR v2)
Трек 13 : извлечено точно (доверие 10) [8A6D9D63] (AR v2)
Трек 14 : извлечено точно (доверие 10) [B3858A89] (AR v2)
Трек 15 : извлечено точно (доверие 10) [066F14A1] (AR v2)
Трек 16 : извлечено точно (доверие 10) [7135EC7C] (AR v2)

Все треки извлечены точно

Конец отчёта

==== Контрольная сумма отчёта 0830DC2F7D7A5F7949C3A443B7C5FEFC2C545CC8833A1DFE6FCB39C46B9E1103 ====

REM GENRE Alternative
REM DATE 2012
REM DISCID DB0F3010
REM COMMENT “ExactAudioCopy v1.0b3”
PERFORMER “Garbage”
TITLE “Not Your Kind Of People”
FILE “Garbage – 2012 – Not Your Kind Of People.flac” WAVE
TRACK 01 AUDIO
TITLE “Automatic Systematic Habit”
PERFORMER “Garbage”
ISRC USZXT1201655
INDEX 01 00:00:00
TRACK 02 AUDIO
TITLE “Big Bright World”
PERFORMER “Garbage”
ISRC USZXT1201656
INDEX 01 03:18:05
TRACK 03 AUDIO
TITLE “Blood for Poppies”
PERFORMER “Garbage”
ISRC USZXT1201657
INDEX 01 06:53:61
TRACK 04 AUDIO
TITLE “Control”
PERFORMER “Garbage”
ISRC USZXT1201658
INDEX 00 10:32:23
INDEX 01 10:33:28
TRACK 05 AUDIO
TITLE “Not Your Kind of People”
PERFORMER “Garbage”
ISRC USZXT1201659
INDEX 01 14:45:70
TRACK 06 AUDIO
TITLE “Felt”
PERFORMER “Garbage”
ISRC USZXT1201660
INDEX 00 19:43:37
INDEX 01 19:45:00
TRACK 07 AUDIO
TITLE “I Hate Love”
PERFORMER “Garbage”
ISRC USZXT1201661
INDEX 01 23:11:59
TRACK 08 AUDIO
TITLE “Sugar”
PERFORMER “Garbage”
ISRC USZXT1201662
INDEX 01 27:06:49
TRACK 09 AUDIO
TITLE “Battle in Me”
PERFORMER “Garbage”
ISRC USZXT1201663
INDEX 00 31:05:46
INDEX 01 31:07:17
TRACK 10 AUDIO
TITLE “Man on a Wire”
PERFORMER “Garbage”
ISRC USZXT1201664
INDEX 00 35:21:35
INDEX 01 35:23:05
TRACK 11 AUDIO
TITLE “Beloved Freak”
PERFORMER “Garbage”
ISRC USZXT1201665
INDEX 00 38:30:02
INDEX 01 38:31:56
TRACK 12 AUDIO
TITLE “The One”
PERFORMER “Garbage”
ISRC USZXT1201667
INDEX 00 43:01:62
INDEX 01 43:04:58
TRACK 13 AUDIO
TITLE “What Girls Are Made Of”
PERFORMER “Garbage”
ISRC USZXT1201668
INDEX 00 47:48:42
INDEX 01 47:49:71
TRACK 14 AUDIO
TITLE “Love Like Suicide”
PERFORMER “Garbage”
ISRC USZXT1201957
INDEX 00 51:37:24
INDEX 01 51:38:71
TRACK 15 AUDIO
TITLE “Bright Tonight”
PERFORMER “Garbage”
ISRC USZXT1201669
INDEX 00 55:28:67
INDEX 01 55:30:16
TRACK 16 AUDIO
TITLE “Show Me”
PERFORMER “Garbage”
ISRC USZXT1201670
INDEX 00 59:32:16
INDEX 01 59:34:10


Spread the Download

Leave a Reply

Your email address will not be published. Required fields are marked *

Enter the text from the image below
 

This site uses Akismet to reduce spam. Learn how your comment data is processed.