Garbage – Garbage (Remastered Japanese Edition)




Artist: Garbage
Year: 1995/2015
Genre: Rock
Notes: Discogs
Add. Notes: Remastered Japanese Edition
Cover incl.: No
Encoder: FLAC
Bitrate: ~1000 kBit/s (44.1 kHz/16 Bit/s)
Log & Cue incl.: Yes
Size: 610 MB
Password: “slam” (without ” “)


All Downloads/Hosters are compatible

Download 1
KatFile.com
Turbobit.net
FileFactory.com
Rapidgator.net
Download 2
KatFile.com
Turbobit.net
FileFactory.com
Rapidgator.net

Tracklist:

1-1 Supervixen 
1-2 Queer 
1-3 Only Happy When It Rains 
1-4 As Heaven Is Wide 
1-5 Not My Idea 
1-6 A Stroke Of Luck 
1-7 Vow 
1-8 Stupid Girl 
1-9 Dog New Tricks 
1-10 My Lover's Box 
1-11 Fix Me Now 
1-12 Milk 

2-1 Subhuman 
2-2 Girl Don'T Come 
2-3 Sleep 
2-4 Driving Lesson 
2-5 Trip My Wire 
2-6 #1 Crush 
2-7 Butterfly Collector 
2-8 Alien Sex Fiend 
2-9 Kick My Ass 

EAC-Log, CUE-Sheed & NFO:

Click to open spoiler
Exact Audio Copy V1.1 from 23. June 2015

????? EAC ?? ??????????, ??????????? 7. ?????? 2015, 21:05

Garbage / Garbage

????????: ASUS BW-12B1ST Adapter: 1 ID: 0

????? ?????? : ?????????????
????????????? ??????? ?????? : ??
?????????? ???? ????? : ??
????????????? ?????????? C2 : ???

????????? ???????? ??? ?????? : 6
??????????? ?????? ??????? Lead-in ? Lead-out : ???
?????????? ??????????? ??????? ??????? : ??
???????? ?????? ? ??????? ? ?????? ? ????? : ???
??? ??????????? CRC ?????????????? ??????? ?????? : ??
????????? : ?????????? Win32-????????? ??? Win NT/2000

???????? ?????? : ?????????? WAV-????????
?????? ??????? : 44.100 ??; 16 ???; ??????

TOC ???????????? CD

???? | ????? | ???????????? | ????????? ?????? | ???????? ??????
———————————————————————
1 | 0:00.00 | 3:55.60 | 0 | 17684
2 | 3:55.60 | 4:36.37 | 17685 | 38421
3 | 8:32.22 | 3:56.40 | 38422 | 56161
4 | 12:28.62 | 4:52.70 | 56162 | 78131
5 | 17:21.57 | 3:41.10 | 78132 | 94716
6 | 21:02.67 | 4:43.65 | 94717 | 116006
7 | 25:46.57 | 4:30.10 | 116007 | 136266
8 | 30:16.67 | 4:18.40 | 136267 | 155656
9 | 34:35.32 | 3:57.23 | 155657 | 173454
10 | 38:32.55 | 3:55.12 | 173455 | 191091
11 | 42:27.67 | 4:43.18 | 191092 | 212334
12 | 47:11.10 | 3:54.43 | 212335 | 229927

?????????????? ????????? ?????????? ? ????????? ?? ???????

????????? ????????

??? ????? D:\EAC\Garbage – 1995 – Garbage (20th Anniversary Edition) (Hostess Entertainment Unlimited ?- HSE-3011)\CD 1 – Garbage\Garbage – 2015 – Garbage.wav

??????? ??????? 100.0 %
???????? ?????????? 6.9 X
???????? ????????? 99.9 %
CRC ????? 917A34EE
CRC ????? 917A34EE
???????????… OK

?????? ?? ?????????

AccurateRip: ??????

???? 1 : ????????? ????? (??????? 3) [16684EB0] (AR v2)
???? 2 : ????????? ????? (??????? 3) [CF109F39] (AR v2)
???? 3 : ????????? ????? (??????? 3) [9C8D9AD5] (AR v2)
???? 4 : ????????? ????? (??????? 3) [46B41A84] (AR v2)
???? 5 : ????????? ????? (??????? 3) [B827ACAE] (AR v2)
???? 6 : ????????? ????? (??????? 3) [C3FA608E] (AR v2)
???? 7 : ????????? ????? (??????? 3) [DFC47BEF] (AR v2)
???? 8 : ????????? ????? (??????? 3) [D9129B3C] (AR v2)
???? 9 : ????????? ????? (??????? 3) [F25AF824] (AR v2)
???? 10 : ????????? ????? (??????? 3) [38C6FBB9] (AR v2)
???? 11 : ????????? ????? (??????? 3) [FDC16546] (AR v2)
???? 12 : ????????? ????? (??????? 2) [577E55A4] (AR v2)

??? ????? ????????? ?????

????? ??????

—- CUETools DB Plugin V2.1.6

[CTDB TOCID: 3qLrZHOm9ra6PyhgV0opPx_hS08-] found
Submit result: already submitted
Track | CTDB Status
1 | (18/18) Accurately ripped
2 | (18/18) Accurately ripped
3 | (18/18) Accurately ripped
4 | (18/18) Accurately ripped
5 | (18/18) Accurately ripped
6 | (18/18) Accurately ripped
7 | (18/18) Accurately ripped
8 | (18/18) Accurately ripped
9 | (18/18) Accurately ripped
10 | (18/18) Accurately ripped
11 | (18/18) Accurately ripped
12 | (18/18) Accurately ripped

==== ??????????? ????? ?????? D29F9700AC54E3D9229D0D8FCF965E0CC62E04FA23FD1A54C99749B119EA1A5E ====

Exact Audio Copy V1.1 from 23. June 2015

????? EAC ?? ??????????, ??????????? 7. ?????? 2015, 15:03

Garbage / G-sides

????????: ASUS BW-12B1ST Adapter: 1 ID: 0

????? ?????? : ?????????????
????????????? ??????? ?????? : ??
?????????? ???? ????? : ??
????????????? ?????????? C2 : ???

????????? ???????? ??? ?????? : 6
??????????? ?????? ??????? Lead-in ? Lead-out : ???
?????????? ??????????? ??????? ??????? : ??
???????? ?????? ? ??????? ? ?????? ? ????? : ???
??? ??????????? CRC ?????????????? ??????? ?????? : ??
????????? : ?????????? Win32-????????? ??? Win NT/2000

???????? ?????? : ?????????? WAV-????????
?????? ??????? : 44.100 ??; 16 ???; ??????

TOC ???????????? CD

???? | ????? | ???????????? | ????????? ?????? | ???????? ??????
———————————————————————
1 | 0:00.00 | 4:34.37 | 0 | 20586
2 | 4:34.37 | 2:36.08 | 20587 | 32294
3 | 7:10.45 | 2:19.67 | 32295 | 42786
4 | 9:30.37 | 3:47.61 | 42787 | 59872
5 | 13:18.23 | 4:26.50 | 59873 | 79872
6 | 17:44.73 | 4:50.38 | 79873 | 101660
7 | 22:35.36 | 3:42.10 | 101661 | 118320
8 | 26:17.46 | 4:41.44 | 118321 | 139439
9 | 30:59.15 | 2:31.24 | 139440 | 150788

?????????????? ????????? ?????????? ? ????????? ?? ???????

????????? ????????

??? ????? D:\EAC\Garbage – 1995 – Garbage (20th Anniversary Edition) (Hostess Entertainment Unlimited ?- HSE-3011)\CD 2 – G-sides\Garbage – 2015 – G-sides.wav

??????? ??????? 100.0 %
???????? ?????????? 6.3 X
???????? ????????? 100.0 %
CRC ????? 0E6B86EC
CRC ????? 0E6B86EC
???????????… OK

?????? ?? ?????????

AccurateRip: ??????

???? 1 ??????????? ? ???? ??????
???? 2 ??????????? ? ???? ??????
???? 3 ??????????? ? ???? ??????
???? 4 ??????????? ? ???? ??????
???? 5 ??????????? ? ???? ??????
???? 6 ??????????? ? ???? ??????
???? 7 ??????????? ? ???? ??????
???? 8 ??????????? ? ???? ??????
???? 9 ??????????? ? ???? ??????

?? ?????? ????? ??? ? ???? AccurateRip

????? ??????

—- CUETools DB Plugin V2.1.6

[CTDB TOCID: dTvGCSvfd1.DMcnOS0VxXEaHUa8-] found
Submit result: dTvGCSvfd1.DMcnOS0VxXEaHUa8- has been confirmed
Track | CTDB Status
1 | (17/17) Accurately ripped
2 | (17/17) Accurately ripped
3 | (17/17) Accurately ripped
4 | (17/17) Accurately ripped
5 | (17/17) Accurately ripped
6 | (17/17) Accurately ripped
7 | (17/17) Accurately ripped
8 | (17/17) Accurately ripped
9 | (17/17) Accurately ripped

==== ??????????? ????? ?????? 5751CFFFC670D13FB149888FEE1EFE91CE7FD832E3E76FDB367A7BFC5931D98D ====

REM GENRE “Alt. Rock”
REM DATE 1995
REM DISCID 9B0BF90C
REM COMMENT “ExactAudioCopy v1.1”
CATALOG 5414939925733
PERFORMER “Garbage”
TITLE “Garbage”
FILE “Garbage – 2015 – Garbage.flac” WAVE
TRACK 01 AUDIO
TITLE “Supervixen”
PERFORMER “Garbage”
ISRC USGF19500401
INDEX 01 00:00:00
TRACK 02 AUDIO
TITLE “Queer”
PERFORMER “Garbage”
ISRC USGF19500402
INDEX 01 03:55:60
TRACK 03 AUDIO
TITLE “Only Happy When It Rains”
PERFORMER “Garbage”
ISRC USGF19500403
INDEX 01 08:32:22
TRACK 04 AUDIO
TITLE “As Heaven Is Wide”
PERFORMER “Garbage”
ISRC USGF19500404
INDEX 01 12:28:62
TRACK 05 AUDIO
TITLE “Not My Idea”
PERFORMER “Garbage”
ISRC USGF19500405
INDEX 01 17:21:57
TRACK 06 AUDIO
TITLE “A Stroke of Luck”
PERFORMER “Garbage”
ISRC USGF19500406
INDEX 01 21:02:67
TRACK 07 AUDIO
TITLE “Vow”
PERFORMER “Garbage”
ISRC USGF19500407
INDEX 01 25:46:57
TRACK 08 AUDIO
TITLE “Stupid Girl”
PERFORMER “Garbage”
ISRC USGF19500408
INDEX 01 30:16:67
TRACK 09 AUDIO
TITLE “Dog New Tricks”
PERFORMER “Garbage”
ISRC USGF19500409
INDEX 01 34:35:32
TRACK 10 AUDIO
TITLE “My Lover’s Box”
PERFORMER “Garbage”
ISRC USGF19500410
INDEX 01 38:32:55
TRACK 11 AUDIO
TITLE “Fix Me Now”
PERFORMER “Garbage”
ISRC USGF19500411
INDEX 01 42:27:67
TRACK 12 AUDIO
TITLE “Milk”
PERFORMER “Garbage”
ISRC USGF19500412
INDEX 01 47:11:10

REM GENRE Alt.Rock
REM DATE 2015
REM DISCID 7307DA09
REM COMMENT “ExactAudioCopy v1.1”
CATALOG 5414939925733
PERFORMER “Garbage”
TITLE “G-sides”
FILE “Garbage – 2015 – G-sides.flac” WAVE
TRACK 01 AUDIO
TITLE “Subhuman”
PERFORMER “Garbage”
ISRC GBPVV1501055
INDEX 01 00:00:00
TRACK 02 AUDIO
TITLE “Girl Don’t Come”
PERFORMER “Garbage”
ISRC GBPVV1501056
INDEX 01 04:34:37
TRACK 03 AUDIO
TITLE “Sleep”
PERFORMER “Garbage”
ISRC GBPVV1501057
INDEX 01 07:10:45
TRACK 04 AUDIO
TITLE “Driving Lesson”
PERFORMER “Garbage”
ISRC GBPVV1501058
INDEX 01 09:30:37
TRACK 05 AUDIO
TITLE “Trip My Wire”
PERFORMER “Garbage”
ISRC GBPVV1501059
INDEX 01 13:18:23
TRACK 06 AUDIO
TITLE “#1 Crush (Nellee Hooper mix)”
PERFORMER “Garbage”
ISRC GBPVV1501060
INDEX 01 17:44:73
TRACK 07 AUDIO
TITLE “Butterfly Collector”
PERFORMER “Garbage”
ISRC GBPVV1501061
INDEX 01 22:35:36
TRACK 08 AUDIO
TITLE “Alien Sex Fiend”
PERFORMER “Garbage”
ISRC GBPVV1501062
INDEX 01 26:17:46
TRACK 09 AUDIO
TITLE “Kick My Ass”
PERFORMER “Garbage”
ISRC GBPVV1501063
INDEX 01 30:59:15


Leave a Reply

Your email address will not be published. Required fields are marked *

Enter the text from the image below
 

This site uses Akismet to reduce spam. Learn how your comment data is processed.