Garbage – Garbage (Japanese Edition)




Artist: Garbage
Year: 1995/1997
Genre: Rock
Notes: Discogs
Add. Notes: Japanese Edition
Cover incl.: Yes
Encoder: FLAC
Bitrate: ~1000 kBit/s (44.1 kHz/16 Bit/s)
Log & Cue incl.: Yes
Size: 424,9 MB
Password: “slam” (without ” “)


All Downloads/Hosters are compatible

Download 1
KatFile.com
Turbobit.net
FileFactory.com
Rapidgator.net
Download 2
KatFile.com
Turbobit.net
FileFactory.com
Rapidgator.net

Tracklist:

1 Supervixen 3:56
2 Queer 4:36
3 Only Happy When It Rains 3:56
4 As Heaven Is Wide 4:43
5 Not My Idea 3:48
6 A Stroke Of Luck 4:45
7 Vow 4:30
8 Stupid Girl 4:18
9 Dog New Tricks 3:57
10 My Lover's Box 3:55
11 Fix Me Now 4:43
12 Milk 3:52
Bonus Tracks
13 Subhuman 4:36
14 #1 Crush 4:45

EAC-Log, CUE-Sheed & NFO:

Click to open spoiler
Exact Audio Copy V1.1 from 23. June 2015

Отчёт EAC об извлечении, выполненном 1. октября 2015, 21:13

Garbage / Garbage (Japanese Import)

Дисковод: HL-DT-STDVDRAM GT20N Adapter: 1 ID: 0

Режим чтения : Достоверность
Использование точного потока : Да
Отключение кэша аудио : Да
Использование указателей C2 : Нет

Коррекция смещения при чтении : 667
Способность читать области Lead-in и Lead-out : Нет
Заполнение пропущенных сэмплов тишиной : Да
Удаление блоков с тишиной в начале и конце : Нет
При вычислениях CRC использовались нулевые сэмплы : Да
Интерфейс : Встроенный Win32-интерфейс для Win NT/2000

Выходной формат : Внутренние WAV-операции
Формат сэмплов : 44.100 Гц; 16 бит; стерео

TOC извлечённого CD

Трек | Старт | Длительность | Начальный сектор | Конечный сектор
———————————————————————
1 | 0:00.37 | 3:56.35 | 37 | 17771
2 | 3:56.72 | 4:36.30 | 17772 | 38501
3 | 8:33.27 | 3:56.40 | 38502 | 56241
4 | 12:29.67 | 4:44.05 | 56242 | 77546
5 | 17:13.72 | 3:48.60 | 77547 | 94706
6 | 21:02.57 | 4:45.10 | 94707 | 116091
7 | 25:47.67 | 4:30.08 | 116092 | 136349
8 | 30:18.00 | 4:18.70 | 136350 | 155769
9 | 34:36.70 | 3:57.05 | 155770 | 173549
10 | 38:34.00 | 3:55.17 | 173550 | 191191
11 | 42:29.17 | 4:43.03 | 191192 | 212419
12 | 47:12.20 | 3:52.17 | 212420 | 229836
13 | 51:04.37 | 4:37.00 | 229837 | 250611
14 | 55:41.37 | 4:45.60 | 250612 | 272046

Характеристики диапазона извлечения и сообщения об ошибках

Выбранный диапазон

Имя файла C:\Garbage – 1997 – Debut (BVCP-6023)\Garbage – Garbage (Japanese Import).wav

Пиковый уровень 100.0 %
Скорость извлечения 2.1 X
Качество диапазона 100.0 %
CRC теста E349640F
CRC копии E349640F
Копирование… OK

Ошибок не произошло

AccurateRip: сводка

Трек 1 отсутствует в базе данных
Трек 2 отсутствует в базе данных
Трек 3 отсутствует в базе данных
Трек 4 отсутствует в базе данных
Трек 5 отсутствует в базе данных
Трек 6 отсутствует в базе данных
Трек 7 отсутствует в базе данных
Трек 8 отсутствует в базе данных
Трек 9 отсутствует в базе данных
Трек 10 отсутствует в базе данных
Трек 11 отсутствует в базе данных
Трек 12 отсутствует в базе данных
Трек 13 отсутствует в базе данных
Трек 14 отсутствует в базе данных

Ни одного трека нет в базе AccurateRip

Конец отчёта

—- CUETools DB Plugin V2.1.6

[CTDB TOCID: _G8gHcTSQT5iCrUH5H3xMIhO9PE-] found
Submit result: _G8gHcTSQT5iCrUH5H3xMIhO9PE- has been confirmed
Track | CTDB Status
1 | (2/2) Accurately ripped
2 | (2/2) Accurately ripped
3 | (2/2) Accurately ripped
4 | (2/2) Accurately ripped
5 | (2/2) Accurately ripped
6 | (2/2) Accurately ripped
7 | (2/2) Accurately ripped
8 | (2/2) Accurately ripped
9 | (2/2) Accurately ripped
10 | (2/2) Accurately ripped
11 | (2/2) Accurately ripped
12 | (2/2) Accurately ripped
13 | (2/2) Accurately ripped
14 | (2/2) Accurately ripped

==== Контрольная сумма отчёта 2D5EB31347C68C3ABC80B3CA8955169E19B1FE02BC1D4CD375640068814E39A0 ====

REM GENRE Other
REM DISCID B20E2B0E
REM COMMENT “ExactAudioCopy v1.1”
PERFORMER “Garbage”
TITLE “Garbage”
FILE “Garbage – Garbage (Japanese Import).flac” WAVE
TRACK 01 AUDIO
TITLE “Supervixen”
PERFORMER “Garbage”
INDEX 00 00:00:00
INDEX 01 00:00:37
TRACK 02 AUDIO
TITLE “Queer”
PERFORMER “Garbage”
INDEX 01 03:56:72
TRACK 03 AUDIO
TITLE “Only Happy When It Rains”
PERFORMER “Garbage”
INDEX 00 08:33:26
INDEX 01 08:33:27
TRACK 04 AUDIO
TITLE “As Heaven Is Wide”
PERFORMER “Garbage”
INDEX 01 12:29:67
TRACK 05 AUDIO
TITLE “Not My Idea”
PERFORMER “Garbage”
INDEX 01 17:13:72
TRACK 06 AUDIO
TITLE “A Stroke Of Luck”
PERFORMER “Garbage”
INDEX 01 21:02:57
TRACK 07 AUDIO
TITLE “Vow”
PERFORMER “Garbage”
INDEX 01 25:47:67
TRACK 08 AUDIO
TITLE “Stupid Girl”
PERFORMER “Garbage”
INDEX 01 30:18:00
TRACK 09 AUDIO
TITLE “Dog New Tricks”
PERFORMER “Garbage”
INDEX 01 34:36:70
TRACK 10 AUDIO
TITLE “My Lover’s Box”
PERFORMER “Garbage”
INDEX 01 38:34:00
TRACK 11 AUDIO
TITLE “Fix Me Now”
PERFORMER “Garbage”
INDEX 01 42:29:17
TRACK 12 AUDIO
TITLE “Milk”
PERFORMER “Garbage”
INDEX 01 47:12:20
TRACK 13 AUDIO
TITLE “Subhuman”
PERFORMER “Garbage”
INDEX 00 51:03:38
INDEX 01 51:04:37
TRACK 14 AUDIO
TITLE “#1 Crush (Nellee Hooper Mix)”
PERFORMER “Garbage”
INDEX 00 55:38:26
INDEX 01 55:41:37


Leave a Reply

Your email address will not be published. Required fields are marked *

This site uses Akismet to reduce spam. Learn how your comment data is processed.