Garbage – Garbage (Australian Tour Edition)




[Total: 0    Average: 0/5]

Artist: Garbage
Year: 1996
Genre: Rock
Notes: Discogs
Add. Notes: Australian Tour Edition
Cover incl.: Yes
Encoder: FLAC
Bitrate: ~900 kBit/s (44.1 kHz/16 Bit/s)
Log & Cue incl.: Yes
Size: 505,38 MB
Password: “slam” (without ” “)


All Downloads/Hosters are compatible

Download 1
Share-online.biz
KatFile.com
Rapidgator.net
Download 2
Share-online.biz
KatFile.com
Rapidgator.net

Tracklist:

1-1 - Supervixen - 3:55
1-2 - Queer - 4:36
1-3 - Only Happy When It Rains - 3:56
1-4 - As Heaven Is Wide - 4:44
1-5 - Not My Idea - 3:41
1-6 - A Stroke Of Luck - 4:44
1-7 - Vow - 4:30
1-8 - Stupid Girl - 4:18
1-9 - Dog New Tricks - 3:56
1-10 - My Lover's Box - 3:55
1-11 - Fix Me Now - 4:43
1-12 - Milk - 3:53

2-1 - Milk (Rabbit In The Moon Mix) - 5:46
2-2 - Stupid Girl (Tee's Radio Mix) - 3:46
2-3 - Queer (Danny Saber Mix) - 5:39
2-4 - Dog New Tricks (The Pal Mix) - 4:03
2-5 - Alien Sex Fiend - 4:37

EAC-Log, CUE-Sheed & NFO:

Click to open spoiler
Exact Audio Copy V1.0 beta 3 from 29. August 2011

Отчёт EAC об извлечении, выполненном 29. сентября 2013, 22:01

Garbage / Garbage

Дисковод: ASUS BW-12B1ST Adapter: 3 ID: 0

Режим чтения : Достоверность
Использование точного потока : Да
Отключение кэша аудио : Да
Использование указателей C2 : Нет

Коррекция смещения при чтении : 6
Способность читать области Lead-in и Lead-out : Нет
Заполнение пропущенных сэмплов тишиной : Да
Удаление блоков с тишиной в начале и конце : Нет
При вычислениях CRC использовались нулевые сэмплы : Да
Интерфейс : Встроенный Win32-интерфейс для Win NT/2000

Выходной формат : Внутренние WAV-операции
Формат сэмплов : 44.100 Гц; 16 бит; стерео

TOC извлечённого CD

Трек | Старт | Длительность | Начальный сектор | Конечный сектор
———————————————————————
1 | 0:00.00 | 3:55.57 | 0 | 17681
2 | 3:55.57 | 4:36.30 | 17682 | 38411
3 | 8:32.12 | 3:56.38 | 38412 | 56149
4 | 12:28.50 | 4:43.65 | 56150 | 77439
5 | 17:12.40 | 3:49.07 | 77440 | 94621
6 | 21:01.47 | 4:45.00 | 94622 | 115996
7 | 25:46.47 | 4:30.10 | 115997 | 136256
8 | 30:16.57 | 4:18.55 | 136257 | 155661
9 | 34:35.37 | 3:57.18 | 155662 | 173454
10 | 38:32.55 | 3:55.02 | 173455 | 191081
11 | 42:27.57 | 4:43.15 | 191082 | 212321
12 | 47:10.72 | 3:52.20 | 212322 | 229741

Характеристики диапазона извлечения и сообщения об ошибках

Выбранный диапазон

Имя файла D:\EAC\Garbage – 1995 – Garbage (Mushroom Rec Int. BV-White – TVD93447 (RMD 53447))\CD 1 – Garbage\Garbage – 1995 – Garbage.wav

Пиковый уровень 100.0 %
Скорость извлечения 7.3 X
Качество диапазона 100.0 %
CRC теста 3A12C721
CRC копии 3A12C721
Копирование… OK

Ошибок не произошло

AccurateRip: сводка

Трек 1 : извлечено точно (доверие 12) [A7C11F73] (AR v2)
Трек 2 : извлечено точно (доверие 12) [A936F428] (AR v2)
Трек 3 : извлечено точно (доверие 12) [693F55CF] (AR v2)
Трек 4 : извлечено точно (доверие 12) [99A196ED] (AR v2)
Трек 5 : извлечено точно (доверие 12) [B1FCA182] (AR v2)
Трек 6 : извлечено точно (доверие 12) [D88803A8] (AR v2)
Трек 7 : извлечено точно (доверие 12) [9EF75927] (AR v2)
Трек 8 : извлечено точно (доверие 12) [5CF06DFB] (AR v2)
Трек 9 : извлечено точно (доверие 12) [C2549DEF] (AR v2)
Трек 10 : извлечено точно (доверие 12) [9E4521B0] (AR v2)
Трек 11 : извлечено точно (доверие 12) [779BA407] (AR v2)
Трек 12 : извлечено точно (доверие 12) [9968BC37] (AR v2)

Все треки извлечены точно

Конец отчёта

==== Контрольная сумма отчёта C015A58EC5289146412D71E994EFF96EA7F0CCEFAEA5C16A5688E6BF383B5B14 ====

Exact Audio Copy V1.0 beta 3 from 29. August 2011

Отчёт EAC об извлечении, выполненном 29. сентября 2013, 23:06

Garbage / Garbage

Дисковод: ASUS BW-12B1ST Adapter: 3 ID: 0

Режим чтения : Достоверность
Использование точного потока : Да
Отключение кэша аудио : Да
Использование указателей C2 : Нет

Коррекция смещения при чтении : 6
Способность читать области Lead-in и Lead-out : Нет
Заполнение пропущенных сэмплов тишиной : Да
Удаление блоков с тишиной в начале и конце : Нет
При вычислениях CRC использовались нулевые сэмплы : Да
Интерфейс : Встроенный Win32-интерфейс для Win NT/2000

Выходной формат : Внутренние WAV-операции
Формат сэмплов : 44.100 Гц; 16 бит; стерео

TOC извлечённого CD

Трек | Старт | Длительность | Начальный сектор | Конечный сектор
———————————————————————
1 | 0:00.00 | 5:46.37 | 0 | 25986
2 | 5:46.37 | 3:46.50 | 25987 | 42986
3 | 9:33.12 | 5:39.25 | 42987 | 68436
4 | 15:12.37 | 4:03.13 | 68437 | 86674
5 | 19:15.50 | 4:37.25 | 86675 | 107474

Характеристики диапазона извлечения и сообщения об ошибках

Выбранный диапазон

Имя файла D:\EAC\Garbage – 1995 – Garbage (Mushroom Rec Int. BV-White – TVD93447 (RMD 53447))\CD 2 – Tour Edition Bonus Disc\Garbage – 1996 – Garbage.wav

Пиковый уровень 91.1 %
Скорость извлечения 2.7 X
Качество диапазона 100.0 %
CRC теста D08A63DA
CRC копии D08A63DA
Копирование… OK

Ошибок не произошло

AccurateRip: сводка

Трек 1 : извлечено точно (доверие 13) [C308602F] (AR v2)
Трек 2 : извлечено точно (доверие 13) [BDF84191] (AR v2)
Трек 3 : извлечено точно (доверие 13) [C1A117A0] (AR v2)
Трек 4 : извлечено точно (доверие 13) [CC4F3AB3] (AR v2)
Трек 5 : извлечено точно (доверие 13) [BDB476B7] (AR v2)

Все треки извлечены точно

Конец отчёта

==== Контрольная сумма отчёта F978D2E7B08CDCC1C6234D95E63CF49C05F37717C1741E91A287D86DA7EC129B ====

REM GENRE Rock
REM DATE 1995
REM DISCID 990BF70C
REM COMMENT “ExactAudioCopy v1.0b3”
PERFORMER “Garbage”
TITLE “Garbage”
FILE “Garbage – 1995 – Garbage.flac” WAVE
TRACK 01 AUDIO
TITLE “Supervixen”
PERFORMER “Garbage”
INDEX 01 00:00:00
TRACK 02 AUDIO
TITLE “Queer”
PERFORMER “Garbage”
INDEX 01 03:55:57
TRACK 03 AUDIO
TITLE “Only Happy When It Rains”
PERFORMER “Garbage”
INDEX 01 08:32:12
TRACK 04 AUDIO
TITLE “As Heaven Is Wide”
PERFORMER “Garbage”
INDEX 01 12:28:50
TRACK 05 AUDIO
TITLE “Not My Idea”
PERFORMER “Garbage”
INDEX 01 17:12:40
TRACK 06 AUDIO
TITLE “A Stroke Of Luck”
PERFORMER “Garbage”
INDEX 01 21:01:47
TRACK 07 AUDIO
TITLE “Vow”
PERFORMER “Garbage”
INDEX 01 25:46:47
TRACK 08 AUDIO
TITLE “Stupid Girl”
PERFORMER “Garbage”
INDEX 01 30:16:57
TRACK 09 AUDIO
TITLE “Dog New Tricks”
PERFORMER “Garbage”
INDEX 01 34:35:37
TRACK 10 AUDIO
TITLE “My Lover’s Box”
PERFORMER “Garbage”
INDEX 01 38:32:55
TRACK 11 AUDIO
TITLE “Fix Me Now”
PERFORMER “Garbage”
INDEX 01 42:27:57
TRACK 12 AUDIO
TITLE “Milk”
PERFORMER “Garbage”
INDEX 01 47:10:72

REM GENRE Rock
REM DATE 1996
REM DISCID 3E059905
REM COMMENT “ExactAudioCopy v1.0b3”
PERFORMER “Garbage”
TITLE “Garbage”
FILE “Garbage – 1996 – Garbage.flac” WAVE
TRACK 01 AUDIO
TITLE “Milk (Rabbit In The Moon Mix)”
PERFORMER “Garbage”
INDEX 01 00:00:00
TRACK 02 AUDIO
TITLE “Stupid Girl (Tee’s Radio Mix)”
PERFORMER “Garbage”
INDEX 01 05:46:37
TRACK 03 AUDIO
TITLE “Queer (Danny Saber Mix)”
PERFORMER “Garbage”
INDEX 01 09:33:12
TRACK 04 AUDIO
TITLE “Dog New Tricks (The Pal Mix)”
PERFORMER “Garbage”
INDEX 01 15:12:37
TRACK 05 AUDIO
TITLE “Alien Sex Fiend”
PERFORMER “Garbage”
INDEX 00 19:15:49
INDEX 01 19:15:50


Spread the Download

Leave a Reply

Your email address will not be published. Required fields are marked *

Enter the text from the image below
 

This site uses Akismet to reduce spam. Learn how your comment data is processed.