Garbage – Beautiful Garbage




Artist: Garbage
Year: 2001
Genre: Alternative
Notes: Discogs
Add. Notes:
Cover incl.: Yes
Encoder: FLAC
Bitrate: ~900 kBit/s (44.1 kHz/16 Bit/s)
Log & Cue incl.: Yes
Size: 439,7 MB
Password: “slam” (without ” “)


All Downloads/Hosters are compatible

Download 1
Turbobit.net
KatFile.com
Rapidgator.net
Usersdrive.com
Download 2
Turbobit.net
KatFile.com
Rapidgator.net
Usersdrive.com

Tracklist:

1 - Shut Your Mouth - 3:26
2 - Androgyny - 3:10
3 - Can't Cry These Tears - 4:16
4 - Til The Day I Die - 3:28
5 - Cup Of Coffee - 4:31
6 - Silence Is Golden - 3:50
7 - Cherry Lips (Go Baby Go!) - 3:12
8 - Breaking Up The Girl - 3:33
9 - Drive You Home - 3:58
10 - Parade - 4:07
11 - Nobody Loves You - 5:08
12 - Untouchable - 4:03
13 - So Like A Rose - 6:20

EAC-Log, CUE-Sheed & NFO:

Click to open spoiler
Exact Audio Copy V1.0 beta 3 from 29. August 2011

Отчёт EAC об извлечении, выполненном 19. июля 2013, 18:00

Garbage / Beautiful Garbage

Дисковод: ASUS BW-12B1ST Adapter: 3 ID: 0

Режим чтения : Достоверность
Использование точного потока : Да
Отключение кэша аудио : Да
Использование указателей C2 : Нет

Коррекция смещения при чтении : 6
Способность читать области Lead-in и Lead-out : Нет
Заполнение пропущенных сэмплов тишиной : Да
Удаление блоков с тишиной в начале и конце : Нет
При вычислениях CRC использовались нулевые сэмплы : Да
Интерфейс : Встроенный Win32-интерфейс для Win NT/2000

Выходной формат : Внутренние WAV-операции
Формат сэмплов : 44.100 Гц; 16 бит; стерео

TOC извлечённого CD

Трек | Старт | Длительность | Начальный сектор | Конечный сектор
———————————————————————
1 | 0:00.00 | 3:25.45 | 0 | 15419
2 | 3:25.45 | 3:09.24 | 15420 | 29618
3 | 6:34.69 | 4:16.16 | 29619 | 48834
4 | 10:51.10 | 3:27.13 | 48835 | 64372
5 | 14:18.23 | 4:30.74 | 64373 | 84696
6 | 18:49.22 | 3:48.52 | 84697 | 101848
7 | 22:37.74 | 3:12.02 | 101849 | 116250
8 | 25:50.01 | 3:34.37 | 116251 | 132337
9 | 29:24.38 | 3:58.56 | 132338 | 150243
10 | 33:23.19 | 4:06.62 | 150244 | 168755
11 | 37:30.06 | 5:07.56 | 168756 | 191836
12 | 42:37.62 | 4:02.72 | 191837 | 210058
13 | 46:40.59 | 6:17.54 | 210059 | 238387
14 | 55:30.38 | 10:08.44 | 249788 | 295431

Характеристики диапазона извлечения и сообщения об ошибках

Выбранный диапазон

Имя файла D:\EAC\Garbage – 2001 – Beautiful Garbage\Garbage – 2001 – Beautiful Garbage.wav

Пиковый уровень 100.0 %
Скорость извлечения 8.0 X
Качество диапазона 100.0 %
CRC теста EFDE1916
CRC копии EFDE1916
Копирование… OK

Ошибок не произошло

AccurateRip: сводка

Трек 1 : извлечено точно (доверие 8) [3569B47E] (AR v2)
Трек 2 : извлечено точно (доверие 8) [ECD7680B] (AR v2)
Трек 3 : извлечено точно (доверие 8) [CF0E03AD] (AR v2)
Трек 4 : извлечено точно (доверие 8) [D013EBCD] (AR v2)
Трек 5 : извлечено точно (доверие 8) [D8E0CC78] (AR v2)
Трек 6 : извлечено точно (доверие 8) [ADA3CF7C] (AR v2)
Трек 7 : извлечено точно (доверие 8) [D80E26E1] (AR v2)
Трек 8 : извлечено точно (доверие 8) [24A4CDC9] (AR v2)
Трек 9 : извлечено точно (доверие 8) [438B579C] (AR v2)
Трек 10 : извлечено точно (доверие 8) [FD7432C1] (AR v2)
Трек 11 : извлечено точно (доверие 8) [2299B3BA] (AR v2)
Трек 12 : извлечено точно (доверие 8) [689D3660] (AR v2)
Трек 13 : извлечено точно (доверие 8) [7966743D] (AR v2)

Все треки извлечены точно

Конец отчёта

==== Контрольная сумма отчёта 0886CB0D8EC13DE0A94DCD94D7F51C6726837D99E48CFFC80F7C2A8E41F44FFF ====

REM GENRE Alternative
REM DATE 2001
REM DISCID B00F630E
REM COMMENT “ExactAudioCopy v1.0b3”
CATALOG 5050466888426
PERFORMER “Garbage”
TITLE “Beautiful Garbage”
FILE “Garbage – 2001 – Beautiful Garbage.flac” WAVE
TRACK 01 AUDIO
TITLE “Shut Your Mouth”
PERFORMER “Garbage”
ISRC GBBUF0100951
INDEX 01 00:00:00
TRACK 02 AUDIO
TITLE “Androgyny”
PERFORMER “Garbage”
ISRC GBBUF0100952
INDEX 00 03:25:05
INDEX 01 03:25:45
TRACK 03 AUDIO
TITLE “Can’t Cry These Tears”
PERFORMER “Garbage”
ISRC GBBUF0100953
INDEX 00 06:34:39
INDEX 01 06:34:69
TRACK 04 AUDIO
TITLE “Til The Day I Die”
PERFORMER “Garbage”
ISRC GBBUF0100954
INDEX 00 10:50:07
INDEX 01 10:51:10
TRACK 05 AUDIO
TITLE “Cup of Coffee”
PERFORMER “Garbage”
ISRC GBBUF0100955
INDEX 00 14:17:08
INDEX 01 14:18:23
TRACK 06 AUDIO
TITLE “Silence is Golden”
PERFORMER “Garbage”
ISRC GBBUF0100956
INDEX 00 18:48:17
INDEX 01 18:49:22
TRACK 07 AUDIO
TITLE “Cherry Lips (Go Baby Go!)”
PERFORMER “Garbage”
ISRC GBBUF0100957
INDEX 00 22:36:74
INDEX 01 22:37:74
TRACK 08 AUDIO
TITLE “Breaking Up The Girl”
PERFORMER “Garbage”
ISRC GBBUF0100958
INDEX 00 25:49:08
INDEX 01 25:50:01
TRACK 09 AUDIO
TITLE “Drive You Home”
PERFORMER “Garbage”
ISRC GBBUF0100959
INDEX 00 29:22:38
INDEX 01 29:24:38
TRACK 10 AUDIO
TITLE “Parade”
PERFORMER “Garbage”
ISRC GBBUF0109510
INDEX 00 33:22:59
INDEX 01 33:23:19
TRACK 11 AUDIO
TITLE “Nobody Loves You”
PERFORMER “Garbage”
ISRC GBBUF0109511
INDEX 01 37:30:06
TRACK 12 AUDIO
TITLE “Untouchable”
PERFORMER “Garbage”
ISRC GBBUF0109512
INDEX 00 42:36:69
INDEX 01 42:37:62
TRACK 13 AUDIO
TITLE “So Like A Rose”
PERFORMER “Garbage”
ISRC GBBUF0109513
INDEX 01 46:40:59


Leave a Reply

Your email address will not be published. Required fields are marked *

This site uses Akismet to reduce spam. Learn how your comment data is processed.