Garbage – Beautiful Garbage (Limited Edition)




Artist: Garbage
Year: 2001
Genre: Alternative
Notes: Discogs
Add. Notes: Limited Edition
Cover incl.: Yes
Encoder: FLAC
Bitrate: ~900 kBit/s (44.1 kHz/16 Bit/s)
Log & Cue incl.: Yes
Size: 355 MB
Password: “slam” (without ” “)


All Downloads/Hosters are compatible

Download 1
KatFile.com
Rapidgator.net
Turbobit.net
FileFactory.com
Download 2
KatFile.com
Rapidgator.net
Turbobit.net
FileFactory.com

Tracklist:

1. Shut Your Mouth
2. Androgyny  
3. Can’t Cry These Tears
4. Till The Day I Die  
5. Cup Of Coffee
6. Silence Is Golden  
7. Cherry Lips (Go Baby Go!)
8. Breaking Up The Girl  
9. Drive You Home  
10. Parade  
11. Nobody Love You  
12. Untouchable  
13. So Like A Rose

EAC-Log, CUE-Sheed & NFO:

Click to open spoiler
Exact Audio Copy V1.0 beta 3 from 29. August 2011

Отчёт EAC об извлечении, выполненном 8. августа 2013, 22:31

Garbage / Beautiful Garbage

Дисковод: ASUS BW-12B1ST Adapter: 3 ID: 0

Режим чтения : Достоверность
Использование точного потока : Да
Отключение кэша аудио : Да
Использование указателей C2 : Нет

Коррекция смещения при чтении : 6
Способность читать области Lead-in и Lead-out : Нет
Заполнение пропущенных сэмплов тишиной : Да
Удаление блоков с тишиной в начале и конце : Нет
При вычислениях CRC использовались нулевые сэмплы : Да
Интерфейс : Встроенный Win32-интерфейс для Win NT/2000

Выходной формат : Внутренние WAV-операции
Формат сэмплов : 44.100 Гц; 16 бит; стерео

TOC извлечённого CD

Трек | Старт | Длительность | Начальный сектор | Конечный сектор
———————————————————————
1 | 0:00.00 | 3:25.56 | 0 | 15430
2 | 3:25.56 | 3:09.51 | 15431 | 29656
3 | 6:35.32 | 4:16.28 | 29657 | 48884
4 | 10:51.60 | 3:27.73 | 48885 | 64482
5 | 14:19.58 | 4:31.15 | 64483 | 84822
6 | 18:50.73 | 3:49.41 | 84823 | 102038
7 | 22:40.39 | 3:12.03 | 102039 | 116441
8 | 25:52.42 | 3:33.06 | 116442 | 132422
9 | 29:25.48 | 3:58.21 | 132423 | 150293
10 | 33:23.69 | 4:06.62 | 150294 | 168805
11 | 37:30.56 | 5:07.59 | 168806 | 191889
12 | 42:38.40 | 4:02.72 | 191890 | 210111
13 | 46:41.37 | 6:17.56 | 210112 | 238442
14 | 55:31.18 | 9:49.74 | 249843 | 294091

Характеристики диапазона извлечения и сообщения об ошибках

Выбранный диапазон

Имя файла D:\EAC\Garbage – 2001 – Beautiful Garbage (Mushroom ‎– MUSH95CDX, Play It Again Sam [PIAS] ‎– 720.0095.26)\Garbage – 2001 – Beautiful Garbage.wav

Пиковый уровень 100.0 %
Скорость извлечения 3.4 X
Качество диапазона 99.9 %
CRC теста 0985F419
CRC копии 0985F419
Копирование… OK

Ошибок не произошло

AccurateRip: сводка

Трек 1 : извлечено точно (доверие 82) [0E14C1A2] (AR v2)
Трек 2 : извлечено точно (доверие 82) [CC91C5CA] (AR v2)
Трек 3 : извлечено точно (доверие 81) [6F2B78A9] (AR v2)
Трек 4 : извлечено точно (доверие 81) [48DCEE8F] (AR v2)
Трек 5 : извлечено точно (доверие 81) [E79A572A] (AR v2)
Трек 6 : извлечено точно (доверие 82) [7AF3A0CF] (AR v2)
Трек 7 : извлечено точно (доверие 81) [C77A66C1] (AR v2)
Трек 8 : извлечено точно (доверие 82) [4387F820] (AR v2)
Трек 9 : извлечено точно (доверие 82) [2059D8AA] (AR v2)
Трек 10 : извлечено точно (доверие 80) [1A345761] (AR v2)
Трек 11 : извлечено точно (доверие 81) [036F1BF1] (AR v2)
Трек 12 : извлечено точно (доверие 81) [1DB20EF6] (AR v2)
Трек 13 : извлечено точно (доверие 78) [E6D0F946] (AR v2)

Все треки извлечены точно

Конец отчёта

==== Контрольная сумма отчёта BA4F7735174267525BC2FD783259A65D20494995FE56B94C0222586EDEB982B4 ====

REM GENRE Alternative
REM DATE 2001
REM DISCID AA0F510E
REM COMMENT “ExactAudioCopy v1.0b3”
PERFORMER “Garbage”
TITLE “Beautiful Garbage”
FILE “Garbage – 2001 – Beautiful Garbage.flac” WAVE
TRACK 01 AUDIO
TITLE “Shut your mouth”
PERFORMER “Garbage”
INDEX 01 00:00:00
TRACK 02 AUDIO
TITLE “Androgyny”
PERFORMER “Garbage”
INDEX 01 03:25:56
TRACK 03 AUDIO
TITLE “Can’t Cry These Tears”
PERFORMER “Garbage”
INDEX 01 06:35:32
TRACK 04 AUDIO
TITLE “Til The Day I Die”
PERFORMER “Garbage”
INDEX 01 10:51:60
TRACK 05 AUDIO
TITLE “Cup Of Coffee”
PERFORMER “Garbage”
INDEX 00 14:17:65
INDEX 01 14:19:58
TRACK 06 AUDIO
TITLE “Silence Is Golden”
PERFORMER “Garbage”
INDEX 01 18:50:73
TRACK 07 AUDIO
TITLE “Cherry Lips (Go Baby Go!)”
PERFORMER “Garbage”
INDEX 00 22:38:69
INDEX 01 22:40:39
TRACK 08 AUDIO
TITLE “Breaking Up The Girl”
PERFORMER “Garbage”
INDEX 01 25:52:42
TRACK 09 AUDIO
TITLE “Drive You Home”
PERFORMER “Garbage”
INDEX 01 29:25:48
TRACK 10 AUDIO
TITLE “Parade”
PERFORMER “Garbage”
INDEX 01 33:23:69
TRACK 11 AUDIO
TITLE “Nobody Loves You”
PERFORMER “Garbage”
INDEX 01 37:30:56
TRACK 12 AUDIO
TITLE “Untouchable”
PERFORMER “Garbage”
INDEX 01 42:38:40
TRACK 13 AUDIO
TITLE “So Like A Rose”
PERFORMER “Garbage”
INDEX 01 46:41:37


Leave a Reply

Your email address will not be published. Required fields are marked *

Enter the text from the image below
 

This site uses Akismet to reduce spam. Learn how your comment data is processed.