Garbage – Beautiful Garbage (Japanese Edition)




Artist: Garbage
Year: 2001
Genre: Alternative
Notes: Discogs
Add. Notes: Japanese Edition
Cover incl.: Yes
Encoder: FLAC
Bitrate: ~900 kBit/s (44.1 kHz/16 Bit/s)
Log & Cue incl.: Yes
Size: 468,26 MB
Password: “slam” (without ” “)


All Downloads/Hosters are compatible

Download 1
Turbobit.net
KatFile.com
Rapidgator.net
Download 2
Turbobit.net
KatFile.com
Rapidgator.net

Tracklist:

1 - Shut Your Mouth - 3:25
2 - Androgyny - 3:09
3 - Can't Cry These Tears - 4:16
4 - Til The Day I Die - 3:27
5 - Cup Of Coffee - 4:30
6 - Silence Is Golden - 3:48
7 - Cherry Lips (Go Baby Go!) - 3:12
8 - Breaking Up The Girl - 3:34
9 - Drive You Home - 3:58
10 - Parade - 4:06
11 - Nobody Loves You - 5:07
12 - Untouchable - 4:02
13 - So Like A Rose - 6:19
14 - Begging Bone - 4:51
15 - The World Is Not Enough - 3:58

EAC-Log, CUE-Sheed & NFO:

Click to open spoiler
Exact Audio Copy V1.0 beta 3 from 29. August 2011

EAC extraction logfile from 19. December 2014, 13:43

Garbage / Beautiful Garbage

Used drive : ASUS DRW-24F1ST a Adapter: 4 ID: 0

Read mode : Secure
Utilize accurate stream : Yes
Defeat audio cache : Yes
Make use of C2 pointers : No

Read offset correction : 6
Overread into Lead-In and Lead-Out : No
Fill up missing offset samples with silence : Yes
Delete leading and trailing silent blocks : No
Null samples used in CRC calculations : Yes
Used interface : Native Win32 interface for Win NT & 2000

Used output format : User Defined Encoder
Selected bitrate : 896 kBit/s
Quality : High
Add ID3 tag : Yes
Command line compressor : C:\Program Files (x86)\FLAC Frontend\tools\flac.exe
Additional command line options : -V -8 -T “Date=%year%” -T “Genre=%genre%” %source%

TOC of the extracted CD

Track | Start | Length | Start sector | End sector
———————————————————
1 | 0:00.00 | 3:25.69 | 0 | 15443
2 | 3:25.69 | 3:09.51 | 15444 | 29669
3 | 6:35.45 | 4:16.27 | 29670 | 48896
4 | 10:51.72 | 3:27.74 | 48897 | 64495
5 | 14:19.71 | 4:31.15 | 64496 | 84835
6 | 18:51.11 | 3:49.41 | 84836 | 102051
7 | 22:40.52 | 3:12.03 | 102052 | 116454
8 | 25:52.55 | 3:33.06 | 116455 | 132435
9 | 29:25.61 | 3:58.15 | 132436 | 150300
10 | 33:24.01 | 4:06.59 | 150301 | 168809
11 | 37:30.60 | 5:07.67 | 168810 | 191901
12 | 42:38.52 | 4:02.61 | 191902 | 210112
13 | 46:41.38 | 6:18.52 | 210113 | 238514
14 | 53:00.15 | 4:50.51 | 238515 | 260315
15 | 57:50.66 | 3:57.69 | 260316 | 278159

Range status and errors

Selected range

Filename G:\EAC – Hellixxx rip\Garbage – 2001 – Beautiful Garbage (SRCS-2533).wav

Peak level 100.0 %
Extraction speed 3.2 X
Range quality 99.9 %
Test CRC 7063006C
Copy CRC 7063006C
Copy OK

No errors occurred

AccurateRip summary

Track 1 accurately ripped (confidence 5) [BC4C55C9] (AR v2)
Track 2 accurately ripped (confidence 5) [44D88D9A] (AR v2)
Track 3 accurately ripped (confidence 5) [8C2E6ABD] (AR v2)
Track 4 accurately ripped (confidence 5) [1866B6D0] (AR v2)
Track 5 accurately ripped (confidence 5) [FEB4E64C] (AR v2)
Track 6 accurately ripped (confidence 5) [FC1DD720] (AR v2)
Track 7 accurately ripped (confidence 5) [B7C5DCD0] (AR v2)
Track 8 accurately ripped (confidence 5) [46C8771B] (AR v2)
Track 9 accurately ripped (confidence 5) [9EEE0A80] (AR v2)
Track 10 accurately ripped (confidence 5) [E4984522] (AR v2)
Track 11 accurately ripped (confidence 5) [567BD9C1] (AR v2)
Track 12 accurately ripped (confidence 5) [9A35B9F4] (AR v2)
Track 13 accurately ripped (confidence 5) [FF2BCEC4] (AR v2)
Track 14 accurately ripped (confidence 5) [87FEF582] (AR v2)
Track 15 accurately ripped (confidence 5) [45250587] (AR v2)

All tracks accurately ripped

End of status report

==== Log checksum FD4EFEA0C939E4ECD0FD4827F3F74F114B91AB81391F932D9A40423B5BB20611 ====

REM GENRE Alternative
REM DATE 2001
REM DISCID BE0E7C0F
REM COMMENT “ExactAudioCopy v1.0b3”
PERFORMER “Garbage”
TITLE “Beautiful Garbage”
FILE “Garbage – 2001 – Beautiful Garbage (SRCS-2533).flac” WAVE
TRACK 01 AUDIO
TITLE “Shut Your Mouth”
PERFORMER “Garbage”
INDEX 01 00:00:00
TRACK 02 AUDIO
TITLE “Androgyny”
PERFORMER “Garbage”
INDEX 01 03:25:69
TRACK 03 AUDIO
TITLE “Can’t Cry These Tears”
PERFORMER “Garbage”
INDEX 01 06:35:45
TRACK 04 AUDIO
TITLE “Til The Day I Die”
PERFORMER “Garbage”
INDEX 01 10:51:72
TRACK 05 AUDIO
TITLE “Cup of Coffee”
PERFORMER “Garbage”
INDEX 00 14:18:27
INDEX 01 14:19:71
TRACK 06 AUDIO
TITLE “Silence Is Golden”
PERFORMER “Garbage”
INDEX 01 18:51:11
TRACK 07 AUDIO
TITLE “Cherry Lips (Go Baby Go!)”
PERFORMER “Garbage”
INDEX 00 22:39:15
INDEX 01 22:40:52
TRACK 08 AUDIO
TITLE “Breaking Up The Girl”
PERFORMER “Garbage”
INDEX 01 25:52:55
TRACK 09 AUDIO
TITLE “Drive You Home”
PERFORMER “Garbage”
INDEX 01 29:25:61
TRACK 10 AUDIO
TITLE “Parade”
PERFORMER “Garbage”
INDEX 01 33:24:01
TRACK 11 AUDIO
TITLE “Nobody Loves You”
PERFORMER “Garbage”
INDEX 01 37:30:60
TRACK 12 AUDIO
TITLE “Untouchable”
PERFORMER “Garbage”
INDEX 01 42:38:52
TRACK 13 AUDIO
TITLE “So Like a Rose”
PERFORMER “Garbage”
INDEX 01 46:41:38
TRACK 14 AUDIO
TITLE “Begging Bone”
PERFORMER “Garbage”
INDEX 01 53:00:15
TRACK 15 AUDIO
TITLE “The World Is Not Enough”
PERFORMER “Garbage”
INDEX 01 57:50:66


Leave a Reply

Your email address will not be published. Required fields are marked *

This site uses Akismet to reduce spam. Learn how your comment data is processed.