Garbage – Absolute Garbage (Remastered Japanese Edition)




[Total: 0    Average: 0/5]

Artist: Garbage
Year: 2007
Genre: Rock
Notes: Discogs
Add. Notes: Remastered Japanese Edition
Cover incl.: Yes
Encoder: FLAC
Bitrate: ~1000 kBit/s (44.1 kHz/16 Bit/s)
Log & Cue incl.: Yes
Size: 530,81 MB
Password: “slam” (without ” “)


All Downloads/Hosters are compatible

Download 1
Share-online.biz
KatFile.com
Rapidgator.net
NitroFlare.com
Download 2
Share-online.biz
KatFile.com
Rapidgator.net
NitroFlare.com

Tracklist:

1. Vow [Remastered 2007] 	
2. Queer [Remastered 2007] 	
3. Only Happy When It Rains [Remastered 2007] 	
4. Stupid Girl [Remastered 2007] 	
5. Milk [Remastered 2007] 	
6. #1 Crush [Nellee Hooper Remix, Remastered 2007] 
7. Push It [Remastered 2007] 	
8. I Think I’m Paranoid [Remastered 2007] 	
9. Special [Remastered 2007] 	
10. When I Grow Up [Remastered 2007] 	
11. You Look So Fine [Remastered 2007] 	
12. The World Is Not Enough [Remastered 2007] 	
13. Cherry Lips (Go Baby Go!) [Remastered 2007] 
14. Shut Your Mouth [Remastered 2007] 	
15. Why Do You Love Me [Remastered 2007] 	
16. Bleed Like Me [Remastered 2007] 	
17. Tell Me Where It Hurts [Remastered 2007] 	
18. It’s All Over But The Crying [Garbage Remix]

EAC-Log, CUE-Sheed & NFO:

Click to open spoiler
Exact Audio Copy V1.1 from 23. June 2015

Отчёт EAC об извлечении, выполненном 10. января 2016, 18:31

Garbage / Absolute Garbage (WPCR-127730)

Дисковод: GENERIC DVD-RAM MLT05 Adapter: 1 ID: 1

Режим чтения : Достоверность
Использование точного потока : Да
Отключение кэша аудио : Да
Использование указателей C2 : Нет

Коррекция смещения при чтении : 102
Способность читать области Lead-in и Lead-out : Нет
Заполнение пропущенных сэмплов тишиной : Да
Удаление блоков с тишиной в начале и конце : Нет
При вычислениях CRC использовались нулевые сэмплы : Да
Интерфейс : Встроенный Win32-интерфейс для Win NT/2000

Выходной формат : Внутренние WAV-операции
Формат сэмплов : 44.100 Гц; 16 бит; стерео

TOC извлечённого CD

Трек | Старт | Длительность | Начальный сектор | Конечный сектор
———————————————————————
1 | 0:00.00 | 4:32.37 | 0 | 20436
2 | 4:32.37 | 4:37.25 | 20437 | 41236
3 | 9:09.62 | 3:47.28 | 41237 | 58289
4 | 12:57.15 | 4:19.55 | 58290 | 77769
5 | 17:16.70 | 3:50.17 | 77770 | 95036
6 | 21:07.12 | 4:45.26 | 95037 | 116437
7 | 25:52.38 | 4:03.47 | 116438 | 134709
8 | 29:56.10 | 3:39.10 | 134710 | 151144
9 | 33:35.20 | 3:47.07 | 151145 | 168176
10 | 37:22.27 | 3:23.68 | 168177 | 183469
11 | 40:46.20 | 5:22.40 | 183470 | 207659
12 | 46:08.60 | 3:58.65 | 207660 | 225574
13 | 50:07.50 | 3:13.25 | 225575 | 240074
14 | 53:21.00 | 3:27.02 | 240075 | 255601
15 | 56:48.02 | 3:53.58 | 255602 | 273134
16 | 60:41.60 | 4:01.08 | 273135 | 291217
17 | 64:42.68 | 4:10.74 | 291218 | 310041
18 | 68:53.67 | 3:49.30 | 310042 | 327246

Характеристики диапазона извлечения и сообщения об ошибках

Выбранный диапазон

Имя файла C:\Garbage – 2007- Absolute Garbage (WPCR-127730\Garbage – Absolute Garbage (WPCR-127730).wav

Пиковый уровень 100.0 %
Скорость извлечения 2.7 X
Качество диапазона 100.0 %
CRC теста 07813F87
CRC копии 07813F87
Копирование… OK

Ошибок не произошло

Конец отчёта

—- CUETools DB Plugin V2.1.6

[CTDB TOCID: 99NikxeNmMLd65Ob6V1xJFuSKZk-] found
Submit result: 99NikxeNmMLd65Ob6V1xJFuSKZk- has been confirmed
Track | CTDB Status
1 | (1/1) Accurately ripped
2 | (1/1) Accurately ripped
3 | (1/1) Accurately ripped
4 | (1/1) Accurately ripped
5 | (1/1) Accurately ripped
6 | (1/1) Accurately ripped
7 | (1/1) Accurately ripped
8 | (1/1) Accurately ripped
9 | (1/1) Accurately ripped
10 | (1/1) Accurately ripped
11 | (1/1) Accurately ripped
12 | (1/1) Accurately ripped
13 | (1/1) Accurately ripped
14 | (1/1) Accurately ripped
15 | (1/1) Accurately ripped
16 | (1/1) Accurately ripped
17 | (1/1) Accurately ripped
18 | (1/1) Accurately ripped

==== Контрольная сумма отчёта 51DD7EB54DB38FDFF7AD29933007685B6AD5E332E1FA78C84A797D26A305360F ====

REM GENRE “Alt. Rock”
REM DATE 2007
REM DISCID 00110B12
REM COMMENT “ExactAudioCopy v1.1”
PERFORMER “Garbage”
TITLE “Absolute Garbage (WPCR-127730)”
FILE “Garbage – Absolute Garbage (WPCR-127730).flac” WAVE
TRACK 01 AUDIO
TITLE “Vow”
PERFORMER “Garbage”
INDEX 01 00:00:00
TRACK 02 AUDIO
TITLE “Queer”
PERFORMER “Garbage”
INDEX 00 04:31:27
INDEX 01 04:32:37
TRACK 03 AUDIO
TITLE “Only Happy When It Rains”
PERFORMER “Garbage”
INDEX 00 09:09:12
INDEX 01 09:09:62
TRACK 04 AUDIO
TITLE “Stupid Girl”
PERFORMER “Garbage”
INDEX 00 12:56:17
INDEX 01 12:57:15
TRACK 05 AUDIO
TITLE “Milk”
PERFORMER “Garbage”
INDEX 00 17:15:25
INDEX 01 17:16:70
TRACK 06 AUDIO
TITLE “#1 Crush”
PERFORMER “Garbage”
INDEX 00 21:06:45
INDEX 01 21:07:12
TRACK 07 AUDIO
TITLE “Push It”
PERFORMER “Garbage”
INDEX 00 25:52:20
INDEX 01 25:52:38
TRACK 08 AUDIO
TITLE “I Think I’m Paranoid”
PERFORMER “Garbage”
INDEX 00 29:55:37
INDEX 01 29:56:10
TRACK 09 AUDIO
TITLE “Special”
PERFORMER “Garbage”
INDEX 00 33:33:35
INDEX 01 33:35:20
TRACK 10 AUDIO
TITLE “When I Grow Up”
PERFORMER “Garbage”
INDEX 00 37:21:57
INDEX 01 37:22:27
TRACK 11 AUDIO
TITLE “You Look So Fine”
PERFORMER “Garbage”
INDEX 00 40:44:42
INDEX 01 40:46:20
TRACK 12 AUDIO
TITLE “The World Is Not Enough”
PERFORMER “Garbage”
INDEX 00 46:08:45
INDEX 01 46:08:60
TRACK 13 AUDIO
TITLE “Cherry Lips (Go Baby Go)”
PERFORMER “Garbage”
INDEX 00 50:06:40
INDEX 01 50:07:50
TRACK 14 AUDIO
TITLE “Shut Your Mouth”
PERFORMER “Garbage”
INDEX 00 53:20:35
INDEX 01 53:21:00
TRACK 15 AUDIO
TITLE “Why Do You Love Me”
PERFORMER “Garbage”
INDEX 00 56:46:62
INDEX 01 56:48:02
TRACK 16 AUDIO
TITLE “Bleed Like Me”
PERFORMER “Garbage”
INDEX 00 60:40:07
INDEX 01 60:41:60
TRACK 17 AUDIO
TITLE “Tell Me Where It Hurts”
PERFORMER “Garbage”
INDEX 00 64:41:22
INDEX 01 64:42:68
TRACK 18 AUDIO
TITLE “It’s All Over but the Crying (Remix)”
PERFORMER “Garbage”
INDEX 00 68:52:67
INDEX 01 68:53:67


Spread the Download

Leave a Reply

Your email address will not be published. Required fields are marked *

Enter the text from the image below
 

This site uses Akismet to reduce spam. Learn how your comment data is processed.