Fugazia – End Hits




Artist: Fugazia
Year: 1998
Genre: Punk
Notes: Discogs
Add. Notes:
Cover incl.: Yes
Encoder: FLAC
Bitrate: ~900 kBit/s (44.1 kHz/16 Bit/s)
Log & Cue incl.: Yes
Size: 292,96 MB
Password: “slam” (without ” “)


All Downloads/Hosters are compatible

Download 1
Turbobit.net
KatFile.com
Rapidgator.net
Download 2
Turbobit.net
KatFile.com
Rapidgator.net

Tracklist:

1 - Break - 2:12
2 - Place Position - 2:45
3 - Recap Modotti - 3:51
4 - No Surprise - 4:12
5 - Five Corporations - 2:29
6 - Caustic Acrostic - 2:01
7 - Closed Captioned - 4:53
8 - Floating Boy - 5:46
9 - Foreman's Dog - 4:21
10 - Arpeggiator - 4:29
11 - Guilford Fall - 2:57
12 - Pink Frosty - 4:09
13 - F/D - 3:41

EAC-Log, CUE-Sheed & NFO:

Click to open spoiler
Exact Audio Copy V0.99 prebeta 4 from 23. January 2008

EAC extraction logfile from 9. May 2009, 18:05

Fugazi / End Hits (1998)

Used drive : ASUS DRW-1814BL Adapter: 1 ID: 0

Read mode : Secure
Utilize accurate stream : Yes
Defeat audio cache : Yes
Make use of C2 pointers : No

Read offset correction : 6
Overread into Lead-In and Lead-Out : No
Fill up missing offset samples with silence : Yes
Delete leading and trailing silent blocks : No
Null samples used in CRC calculations : Yes
Used interface : Native Win32 interface for Win NT & 2000
Gap handling : Appended to previous track

Used output format : User Defined Encoder
Selected bitrate : 128 kBit/s
Quality : High
Add ID3 tag : No
Command line compressor : C:\Program Files\Exact Audio Copy\FLAC\FLAC.EXE
Additional command line options : -V -8 -T “artist=%a” -T “title=%t” -T “album=%g” -T “date=%y” -T “tracknumber=%n” -T “genre=%m” %s

TOC of the extracted CD

Track | Start | Length | Start sector | End sector
———————————————————
1 | 0:00.00 | 2:12.17 | 0 | 9916
2 | 2:12.17 | 2:45.23 | 9917 | 22314
3 | 4:57.40 | 3:50.40 | 22315 | 39604
4 | 8:48.05 | 4:12.10 | 39605 | 58514
5 | 13:00.15 | 2:28.70 | 58515 | 69684
6 | 15:29.10 | 2:01.20 | 69685 | 78779
7 | 17:30.30 | 4:52.65 | 78780 | 100744
8 | 22:23.20 | 5:45.45 | 100745 | 126664
9 | 28:08.65 | 4:21.12 | 126665 | 146251
10 | 32:30.02 | 4:28.38 | 146252 | 166389
11 | 36:58.40 | 2:57.05 | 166390 | 179669
12 | 39:55.45 | 4:09.07 | 179670 | 198351
13 | 44:04.52 | 3:42.20 | 198352 | 215021

Track 1

Filename E:\New Music Correctly Labelled\Fugazi\[1998] – End Hits (1998)\01 – Break.wav

Pre-gap length 0:00:02.00

Peak level 92.7 %
Track quality 100.0 %
Test CRC 87D8085F
Copy CRC 87D8085F
Accurately ripped (confidence 30) [17C2E7A6]
Copy OK

Track 2

Filename E:\New Music Correctly Labelled\Fugazi\[1998] – End Hits (1998)\02 – Place Position.wav

Peak level 98.1 %
Track quality 100.0 %
Test CRC EF97D4BF
Copy CRC EF97D4BF
Accurately ripped (confidence 29) [C93F87AA]
Copy OK

Track 3

Filename E:\New Music Correctly Labelled\Fugazi\[1998] – End Hits (1998)\03 – Recap Modotti.wav

Peak level 98.4 %
Track quality 100.0 %
Test CRC 72583E70
Copy CRC 72583E70
Accurately ripped (confidence 29) [0361BC88]
Copy OK

Track 4

Filename E:\New Music Correctly Labelled\Fugazi\[1998] – End Hits (1998)\04 – No Surprise.wav

Peak level 98.0 %
Track quality 100.0 %
Test CRC 3413CE96
Copy CRC 3413CE96
Accurately ripped (confidence 29) [51F727C9]
Copy OK

Track 5

Filename E:\New Music Correctly Labelled\Fugazi\[1998] – End Hits (1998)\05 – Five Corporations.wav

Peak level 98.0 %
Track quality 100.0 %
Test CRC 1D84D3B7
Copy CRC 1D84D3B7
Accurately ripped (confidence 29) [A98EE146]
Copy OK

Track 6

Filename E:\New Music Correctly Labelled\Fugazi\[1998] – End Hits (1998)\06 – Caustic Acrostic.wav

Peak level 98.0 %
Track quality 100.0 %
Test CRC 76997B63
Copy CRC 76997B63
Accurately ripped (confidence 30) [97415EDF]
Copy OK

Track 7

Filename E:\New Music Correctly Labelled\Fugazi\[1998] – End Hits (1998)\07 – Closed Captioned.wav

Peak level 98.1 %
Track quality 99.9 %
Test CRC 6847FAB7
Copy CRC 6847FAB7
Accurately ripped (confidence 29) [6BAD455B]
Copy OK

Track 8

Filename E:\New Music Correctly Labelled\Fugazi\[1998] – End Hits (1998)\08 – Floating Boy.wav

Peak level 98.0 %
Track quality 100.0 %
Test CRC 325B6456
Copy CRC 325B6456
Accurately ripped (confidence 29) [99957C44]
Copy OK

Track 9

Filename E:\New Music Correctly Labelled\Fugazi\[1998] – End Hits (1998)\09 – Foreman’s Dog.wav

Peak level 98.0 %
Track quality 100.0 %
Test CRC EED02319
Copy CRC EED02319
Accurately ripped (confidence 29) [5FD59107]
Copy OK

Track 10

Filename E:\New Music Correctly Labelled\Fugazi\[1998] – End Hits (1998)\10 – Arpeggiator.wav

Peak level 98.0 %
Track quality 100.0 %
Test CRC F3A43A62
Copy CRC F3A43A62
Accurately ripped (confidence 27) [461F780A]
Copy OK

Track 11

Filename E:\New Music Correctly Labelled\Fugazi\[1998] – End Hits (1998)\11 – Guilford Fall.wav

Peak level 98.0 %
Track quality 100.0 %
Test CRC 7551325C
Copy CRC 7551325C
Accurately ripped (confidence 29) [46420B8E]
Copy OK

Track 12

Filename E:\New Music Correctly Labelled\Fugazi\[1998] – End Hits (1998)\12 – Pink Frosty.wav

Peak level 95.7 %
Track quality 100.0 %
Test CRC 16635274
Copy CRC 16635274
Accurately ripped (confidence 28) [5BC5FE1B]
Copy OK

Track 13

Filename E:\New Music Correctly Labelled\Fugazi\[1998] – End Hits (1998)\13 – F,D.wav

Peak level 98.0 %
Track quality 100.0 %
Test CRC 9F29A3ED
Copy CRC 9F29A3ED
Accurately ripped (confidence 29) [281BBCCC]
Copy OK

All tracks accurately ripped

No errors occurred

End of status report

REM DATE 1998
REM DISCID A70B320D
REM COMMENT “ExactAudioCopy v0.99pb4”
PERFORMER “Fugazi”
TITLE “End Hits”
FILE “01. Break.wav” WAVE
TRACK 01 AUDIO
TITLE “Break”
PERFORMER “Fugazi”
INDEX 01 00:00:00
FILE “02. Place Position.wav” WAVE
TRACK 02 AUDIO
TITLE “Place Position”
PERFORMER “Fugazi”
INDEX 01 00:00:00
FILE “03. Recap Modotti.wav” WAVE
TRACK 03 AUDIO
TITLE “Recap Modotti”
PERFORMER “Fugazi”
INDEX 01 00:00:00
FILE “04. No Surprise.wav” WAVE
TRACK 04 AUDIO
TITLE “No Surprise”
PERFORMER “Fugazi”
INDEX 01 00:00:00
FILE “05. Five Corporations.wav” WAVE
TRACK 05 AUDIO
TITLE “Five Corporations”
PERFORMER “Fugazi”
INDEX 01 00:00:00
FILE “06. Caustic Acrostic.wav” WAVE
TRACK 06 AUDIO
TITLE “Caustic Acrostic”
PERFORMER “Fugazi”
INDEX 01 00:00:00
FILE “07. Closed Captioned.wav” WAVE
TRACK 07 AUDIO
TITLE “Closed Captioned”
PERFORMER “Fugazi”
INDEX 01 00:00:00
FILE “08. Floating Boy.wav” WAVE
TRACK 08 AUDIO
TITLE “Floating Boy”
PERFORMER “Fugazi”
INDEX 01 00:00:00
FILE “09. Foreman’s Dog.wav” WAVE
TRACK 09 AUDIO
TITLE “Foreman’s Dog”
PERFORMER “Fugazi”
INDEX 01 00:00:00
FILE “10. Arpeggiator.wav” WAVE
TRACK 10 AUDIO
TITLE “Arpeggiator”
PERFORMER “Fugazi”
INDEX 01 00:00:00
FILE “11. Guilford Fall.wav” WAVE
TRACK 11 AUDIO
TITLE “Guilford Fall”
PERFORMER “Fugazi”
INDEX 01 00:00:00
FILE “12. Pink Frosty.wav” WAVE
TRACK 12 AUDIO
TITLE “Pink Frosty”
PERFORMER “Fugazi”
INDEX 01 00:00:00
FILE “13. F-D.wav” WAVE
TRACK 13 AUDIO
TITLE “F/D”
PERFORMER “Fugazi”
INDEX 01 00:00:00


Leave a Reply

Your email address will not be published. Required fields are marked *

This site uses Akismet to reduce spam. Learn how your comment data is processed.