Fugazi – The Argument




Artist: Fugazi
Year: 2001
Genre: Punk
Notes: Discogs
Add. Notes:
Cover incl.: Yes
Encoder: FLAC
Bitrate: ~800 kBit/s (44.1 kHz/16 Bit/s)
Log & Cue incl.: Yes
Size: 279,16 MB
Password: “slam” (without ” “)


All Downloads/Hosters are compatible

Download 1
Turbobit.net
NitroFlare.com
KatFile.com
Rapidgator.net
Download 2
Turbobit.net
NitroFlare.com
KatFile.com
Rapidgator.net

Tracklist:

1 - Untitled - 0:52
2 - Cashout - 4:24
3 - Full Disclosure - 3:53
4 - Epic Problem - 3:59
5 - Life And Limb - 3:09
6 - The Kill - 5:27
7 - Strangelight - 5:53
8 - Oh - 4:29
9 - Ex-Spectator - 4:18
10 - Nightshop - 4:02
11 - Argument - 4:27

EAC-Log, CUE-Sheed & NFO:

Click to open spoiler
Exact Audio Copy V0.99 prebeta 4 from 23. January 2008

EAC extraction logfile from 26. March 2008, 13:37

Fugazi / The Argument

Used drive : HL-DT-STDVDRAM GSA-T10N Adapter: 1 ID: 0

Read mode : Secure
Utilize accurate stream : Yes
Defeat audio cache : Yes
Make use of C2 pointers : No

Read offset correction : 667
Overread into Lead-In and Lead-Out : No
Fill up missing offset samples with silence : Yes
Delete leading and trailing silent blocks : No
Null samples used in CRC calculations : Yes
Used interface : Native Win32 interface for Win NT & 2000
Gap handling : Appended to previous track

Used output format : User Defined Encoder
Selected bitrate : 128 kBit/s
Quality : High
Add ID3 tag : No
Command line compressor : C:\Program Files\Exact Audio Copy\Flac\flac.exe
Additional command line options : -8 -A tukey(0.25) -A gauss(0.1875) -b 4096 -V -T “artist=%a” -T “title=%t” -T “album=%g” -T “date=%y” -T “tracknumber=%n” -T “genre=%m” %s –sector-align

TOC of the extracted CD

Track | Start | Length | Start sector | End sector
———————————————————
1 | 0:00.00 | 0:52.73 | 0 | 3972
2 | 0:52.73 | 4:24.69 | 3973 | 23841
3 | 5:17.67 | 3:53.06 | 23842 | 41322
4 | 9:10.73 | 3:59.58 | 41323 | 59305
5 | 13:10.56 | 3:09.52 | 59306 | 73532
6 | 16:20.33 | 5:27.27 | 73533 | 98084
7 | 21:47.60 | 5:53.41 | 98085 | 124600
8 | 27:41.26 | 4:29.30 | 124601 | 144805
9 | 32:10.56 | 4:18.71 | 144806 | 164226
10 | 36:29.52 | 4:02.48 | 164227 | 182424
11 | 40:32.25 | 4:27.52 | 182425 | 202501

Track 1

Filename D:\Upload\The Argument [FLAC]\01 – Fugazi -.wav

Pre-gap length 0:00:02.00

Peak level 24.4 %
Track quality 100.0 %
Test CRC 9EC90FDC
Copy CRC 9EC90FDC
Copy OK

Track 2

Filename D:\Upload\The Argument [FLAC]\02 – Fugazi – Cashout.wav

Peak level 97.7 %
Track quality 100.0 %
Test CRC DFC5361E
Copy CRC DFC5361E
Copy OK

Track 3

Filename D:\Upload\The Argument [FLAC]\03 – Fugazi – Full Disclosure.wav

Pre-gap length 0:00:00.06

Peak level 100.0 %
Track quality 99.9 %
Test CRC F8EEB991
Copy CRC F8EEB991
Copy OK

Track 4

Filename D:\Upload\The Argument [FLAC]\04 – Fugazi – Epic Problem.wav

Peak level 99.7 %
Track quality 100.0 %
Test CRC 8F494D84
Copy CRC 8F494D84
Copy OK

Track 5

Filename D:\Upload\The Argument [FLAC]\05 – Fugazi – Life and Limb.wav

Peak level 95.4 %
Track quality 100.0 %
Test CRC 71FB483C
Copy CRC 71FB483C
Copy OK

Track 6

Filename D:\Upload\The Argument [FLAC]\06 – Fugazi – The Kill.wav

Pre-gap length 0:00:02.01

Peak level 94.3 %
Track quality 100.0 %
Test CRC 9AB79AE0
Copy CRC 9AB79AE0
Copy OK

Track 7

Filename D:\Upload\The Argument [FLAC]\07 – Fugazi – Strangelight.wav

Peak level 100.0 %
Track quality 100.0 %
Test CRC 5274B8EA
Copy CRC 5274B8EA
Copy OK

Track 8

Filename D:\Upload\The Argument [FLAC]\08 – Fugazi – Oh.wav

Peak level 99.9 %
Track quality 100.0 %
Test CRC 2452657D
Copy CRC 2452657D
Copy OK

Track 9

Filename D:\Upload\The Argument [FLAC]\09 – Fugazi – Ex-Spectator.wav

Pre-gap length 0:00:00.01

Peak level 98.8 %
Track quality 100.0 %
Test CRC A716EAA1
Copy CRC A716EAA1
Copy OK

Track 10

Filename D:\Upload\The Argument [FLAC]\10 – Fugazi – Nightshop.wav

Peak level 99.8 %
Track quality 100.0 %
Test CRC 5D20A180
Copy CRC 5D20A180
Copy OK

Track 11

Filename D:\Upload\The Argument [FLAC]\11 – Fugazi – Argument.wav

Peak level 98.8 %
Track quality 100.0 %
Test CRC 6EDE2A66
Copy CRC 6EDE2A66
Copy OK

No errors occurred

End of status report

REM DATE 2001
REM DISCID 8F0A8C0B
REM COMMENT “ExactAudioCopy v0.99pb4”
PERFORMER “Fugazi”
TITLE “The Argument”
FILE “01. Untitled.wav” WAVE
TRACK 01 AUDIO
TITLE “Untitled”
PERFORMER “Fugazi”
INDEX 01 00:00:00
FILE “02. Cashout.wav” WAVE
TRACK 02 AUDIO
TITLE “Cashout”
PERFORMER “Fugazi”
INDEX 01 00:00:00
TRACK 03 AUDIO
TITLE “Full Disclosure”
PERFORMER “Fugazi”
INDEX 00 04:24:64
FILE “03. Full Disclosure.wav” WAVE
INDEX 01 00:00:00
FILE “04. Epic Problem.wav” WAVE
TRACK 04 AUDIO
TITLE “Epic Problem”
PERFORMER “Fugazi”
INDEX 01 00:00:00
FILE “05. Life and Limb.wav” WAVE
TRACK 05 AUDIO
TITLE “Life and Limb”
PERFORMER “Fugazi”
INDEX 01 00:00:00
TRACK 06 AUDIO
TITLE “The Kill”
PERFORMER “Fugazi”
INDEX 00 03:07:51
FILE “06. The Kill.wav” WAVE
INDEX 01 00:00:00
FILE “07. Strangelight.wav” WAVE
TRACK 07 AUDIO
TITLE “Strangelight”
PERFORMER “Fugazi”
INDEX 01 00:00:00
FILE “08. Oh.wav” WAVE
TRACK 08 AUDIO
TITLE “Oh”
PERFORMER “Fugazi”
INDEX 01 00:00:00
TRACK 09 AUDIO
TITLE “Ex-Spectator”
PERFORMER “Fugazi”
INDEX 00 04:29:29
FILE “09. Ex-Spectator.wav” WAVE
INDEX 01 00:00:00
FILE “10. Nightshop.wav” WAVE
TRACK 10 AUDIO
TITLE “Nightshop”
PERFORMER “Fugazi”
INDEX 01 00:00:00
FILE “11. Argument.wav” WAVE
TRACK 11 AUDIO
TITLE “Argument”
PERFORMER “Fugazi”
INDEX 01 00:00:00


Leave a Reply

Your email address will not be published. Required fields are marked *

Enter the text from the image below
 

This site uses Akismet to reduce spam. Learn how your comment data is processed.