Fugazi – Steady Diet Of Nothing (Remastered)




Artist: Fugazi
Year: 1991/2004
Genre: Punk
Notes: Discogs
Add. Notes: Remastered
Cover incl.: Yes
Encoder: FLAC
Bitrate: ~900 kBit/s (44.1 kHz/16 Bit/s)
Log & Cue incl.: Yes
Size: 243,21 MB
Password: “slam” (without ” “)


All Downloads/Hosters are compatible

Download 1
Turbobit.net
KatFile.com
Rapidgator.net
Download 2
Turbobit.net
KatFile.com
Rapidgator.net

Tracklist:

1 - Exit Only - 3:11
2 - Reclamation - 3:43
3 - Nice New Outfit - 3:09
4 - Stacks - 3:58
5 - Latin Roots - 3:21
6 - Steady Diet - 3:38
7 - Long Division - 3:27
8 - Runaway Return - 2:13
9 - Polish - 3:13
10 - Dear Justice Letter - 2:58
11 - KYEO - 3:28

EAC-Log, CUE-Sheed & NFO:

Click to open spoiler
Exact Audio Copy V0.99 prebeta 4 from 23. January 2008

EAC extraction logfile from 7. March 2009, 15:38

Fugazi / Steady Diet Of Nothing (Remastered)

Used drive : PIONEER DVD-RW DVR-111D Adapter: 1 ID: 0

Read mode : Secure
Utilize accurate stream : Yes
Defeat audio cache : Yes
Make use of C2 pointers : No

Read offset correction : 48
Overread into Lead-In and Lead-Out : No
Fill up missing offset samples with silence : Yes
Delete leading and trailing silent blocks : No
Null samples used in CRC calculations : Yes
Used interface : Installed external ASPI interface
Gap handling : Appended to previous track

Used output format : User Defined Encoder
Selected bitrate : 128 kBit/s
Quality : High
Add ID3 tag : No
Command line compressor : C:\Program Files\Exact Audio Copy\Flac\flac.exe
Additional command line options : -V -8 -T “artist=%a” -T “title=%t” -T “album=%g” -T “date=%y” -T “tracknumber=%n” -T “genre=%m” %s

TOC of the extracted CD

Track | Start | Length | Start sector | End sector
———————————————————
1 | 0:00.00 | 3:11.19 | 0 | 14343
2 | 3:11.19 | 3:21.03 | 14344 | 29421
3 | 6:32.22 | 3:26.49 | 29422 | 44920
4 | 9:58.71 | 3:08.65 | 44921 | 59085
5 | 13:07.61 | 3:13.26 | 59086 | 73586
6 | 16:21.12 | 3:42.64 | 73587 | 90300
7 | 20:04.01 | 2:12.37 | 90301 | 100237
8 | 22:16.38 | 3:58.21 | 100238 | 118108
9 | 26:14.59 | 3:38.14 | 118109 | 134472
10 | 29:52.73 | 3:27.46 | 134473 | 150043
11 | 33:20.44 | 2:58.07 | 150044 | 163400

Track 1

Filename D:\Mp3\Fugazi – Steady Diet Of Nothing (Remastered) (1991)\01. Exit Only.wav

Pre-gap length 0:00:02.00

Peak level 100.0 %
Track quality 99.9 %
Test CRC 6392E999
Copy CRC 6392E999
Cannot be verified as accurate (confidence 4) [E9D9ACFE], AccurateRip returned [E5F4CB84]
Copy OK

Track 2

Filename D:\Mp3\Fugazi – Steady Diet Of Nothing (Remastered) (1991)\02. Reclamation.wav

Peak level 100.0 %
Track quality 100.0 %
Test CRC 08DD7A01
Copy CRC 08DD7A01
Cannot be verified as accurate (confidence 4) [88762032], AccurateRip returned [3FA0476C]
Copy OK

Track 3

Filename D:\Mp3\Fugazi – Steady Diet Of Nothing (Remastered) (1991)\03. Nice New Outfit.wav

Peak level 100.0 %
Track quality 100.0 %
Test CRC D245E4E7
Copy CRC D245E4E7
Cannot be verified as accurate (confidence 4) [632DDDA6], AccurateRip returned [53CF0613]
Copy OK

Track 4

Filename D:\Mp3\Fugazi – Steady Diet Of Nothing (Remastered) (1991)\04. Stacks.wav

Peak level 100.0 %
Track quality 100.0 %
Test CRC 3857EBB0
Copy CRC 3857EBB0
Cannot be verified as accurate (confidence 4) [67F9BD7C], AccurateRip returned [F6B06773]
Copy OK

Track 5

Filename D:\Mp3\Fugazi – Steady Diet Of Nothing (Remastered) (1991)\05. Latin Roots.wav

Peak level 100.0 %
Track quality 100.0 %
Test CRC 3E9F64A2
Copy CRC 3E9F64A2
Cannot be verified as accurate (confidence 5) [ED4F8379], AccurateRip returned [EB5B6FAF]
Copy OK

Track 6

Filename D:\Mp3\Fugazi – Steady Diet Of Nothing (Remastered) (1991)\06. Steady Diet.wav

Peak level 100.0 %
Track quality 100.0 %
Test CRC F256DD45
Copy CRC F256DD45
Cannot be verified as accurate (confidence 5) [BC6BABA0], AccurateRip returned [4A977269]
Copy OK

Track 7

Filename D:\Mp3\Fugazi – Steady Diet Of Nothing (Remastered) (1991)\07. Long Division.wav

Peak level 100.0 %
Track quality 99.9 %
Test CRC 21541C2B
Copy CRC 21541C2B
Cannot be verified as accurate (confidence 5) [B93CC6BA], AccurateRip returned [5931685C]
Copy OK

Track 8

Filename D:\Mp3\Fugazi – Steady Diet Of Nothing (Remastered) (1991)\08. Runaway Return.wav

Peak level 100.0 %
Track quality 100.0 %
Test CRC D932241C
Copy CRC D932241C
Cannot be verified as accurate (confidence 5) [74EFED1F], AccurateRip returned [1C57C85A]
Copy OK

Track 9

Filename D:\Mp3\Fugazi – Steady Diet Of Nothing (Remastered) (1991)\09. Polish.wav

Peak level 100.0 %
Track quality 100.0 %
Test CRC 61CEE182
Copy CRC 61CEE182
Cannot be verified as accurate (confidence 5) [FC5CF8A0], AccurateRip returned [722C09C0]
Copy OK

Track 10

Filename D:\Mp3\Fugazi – Steady Diet Of Nothing (Remastered) (1991)\10. Dear Justice Letter.wav

Peak level 100.0 %
Track quality 100.0 %
Test CRC 9B85BF0D
Copy CRC 9B85BF0D
Cannot be verified as accurate (confidence 5) [D2FD3BE6], AccurateRip returned [48439A23]
Copy OK

Track 11

Filename D:\Mp3\Fugazi – Steady Diet Of Nothing (Remastered) (1991)\11. KYEO.wav

Peak level 100.0 %
Track quality 100.0 %
Test CRC 2A1B3991
Copy CRC 2A1B3991
Cannot be verified as accurate (confidence 5) [100BF9D4], AccurateRip returned [5CBF2A7D]
Copy OK

No tracks could be verified as accurate
You may have a different pressing from the one(s) in the database

No errors occurred

End of status report

REM DATE 2004
REM DISCID 9508820B
REM COMMENT “ExactAudioCopy v0.99pb4”
PERFORMER “Fugazi”
TITLE “Steady Diet Of Nothing”
FILE “01. Exit Only.wav” WAVE
TRACK 01 AUDIO
TITLE “Exit Only”
PERFORMER “Fugazi”
INDEX 01 00:00:00
FILE “02. Reclamation.wav” WAVE
TRACK 02 AUDIO
TITLE “Reclamation”
PERFORMER “Fugazi”
INDEX 01 00:00:00
FILE “03. Nice New Outfit.wav” WAVE
TRACK 03 AUDIO
TITLE “Nice New Outfit”
PERFORMER “Fugazi”
INDEX 01 00:00:00
FILE “04. Stacks.wav” WAVE
TRACK 04 AUDIO
TITLE “Stacks”
PERFORMER “Fugazi”
INDEX 01 00:00:00
FILE “05. Latin Roots.wav” WAVE
TRACK 05 AUDIO
TITLE “Latin Roots”
PERFORMER “Fugazi”
INDEX 01 00:00:00
FILE “06. Steady Diet.wav” WAVE
TRACK 06 AUDIO
TITLE “Steady Diet”
PERFORMER “Fugazi”
INDEX 01 00:00:00
FILE “07. Long Division.wav” WAVE
TRACK 07 AUDIO
TITLE “Long Division”
PERFORMER “Fugazi”
INDEX 01 00:00:00
FILE “08. Runaway Return.wav” WAVE
TRACK 08 AUDIO
TITLE “Runaway Return”
PERFORMER “Fugazi”
INDEX 01 00:00:00
FILE “09. Polish.wav” WAVE
TRACK 09 AUDIO
TITLE “Polish”
PERFORMER “Fugazi”
INDEX 01 00:00:00
FILE “10. Dear Justice Letter.wav” WAVE
TRACK 10 AUDIO
TITLE “Dear Justice Letter”
PERFORMER “Fugazi”
INDEX 01 00:00:00
FILE “11. KYEO.wav” WAVE
TRACK 11 AUDIO
TITLE “KYEO”
PERFORMER “Fugazi”
INDEX 01 00:00:00


Leave a Reply

Your email address will not be published. Required fields are marked *

This site uses Akismet to reduce spam. Learn how your comment data is processed.