Fugazi – Repeater + 3 Songs (Remastered)




Artist: Fugazi
Year: 1990/2005
Genre: Hardcore
Notes: Discogs
Add. Notes: Remastered
Cover incl.: No
Encoder: FLAC
Bitrate: ~1000 kBit/s (44.1 kHz/16 Bit/s)
Log & Cue incl.: Yes
Size: 289,66 MB
Password: “slam” (without ” “)


All Downloads/Hosters are compatible

Download 1
Turbobit.net
NitroFlare.com
KatFile.com
Rapidgator.net
Download 2
Turbobit.net
NitroFlare.com
KatFile.com
Rapidgator.net

Tracklist:

1 - Turnover - 4:15
2 - Repeater - 3:01
3 - Brendan #1 - 2:32
4 - Merchandise - 2:58
5 - Blueprint - 3:52
6 - Sieve-Fisted Find - 3:24
7 - Greed - 1:47
8 - Two Beats Off - 3:28
9 - Styrofoam - 2:35
10 - Reprovisional - 2:17
11 - Shut The Door - 4:59
12 - Song #1 - 2:54
13 - Joe #1 - 3:01
14 - Break-In - 1:32

EAC-Log, CUE-Sheed & NFO:

Click to open spoiler
Exact Audio Copy V0.99 prebeta 4 from 23. January 2008

EAC extraction logfile from 7. January 2009, 22:24

Fugazi / Repeater + 3 Songs

Used drive : Memorex DVD16+/-DL4RWlD2 Adapter: 3 ID: 0

Read mode : Secure
Utilize accurate stream : Yes
Defeat audio cache : Yes
Make use of C2 pointers : No

Read offset correction : 12
Overread into Lead-In and Lead-Out : No
Fill up missing offset samples with silence : Yes
Delete leading and trailing silent blocks : No
Null samples used in CRC calculations : Yes
Used interface : Native Win32 interface for Win NT & 2000
Gap handling : Appended to previous track

Used output format : User Defined Encoder
Selected bitrate : 320 kBit/s
Quality : High
Add ID3 tag : No
Command line compressor : C:\Program Files\Exact Audio Copy\Flac\flac.exe
Additional command line options : -V -8 -T “artist=%a” -T “title=%t” -T “album=%g” -T “date=%y” -T “tracknumber=%n” -T “genre=%m” %s

TOC of the extracted CD

Track | Start | Length | Start sector | End sector
———————————————————
1 | 0:00.00 | 4:15.54 | 0 | 19178
2 | 4:15.54 | 3:01.29 | 19179 | 32782
3 | 7:17.08 | 2:32.37 | 32783 | 44219
4 | 9:49.45 | 2:58.72 | 44220 | 57641
5 | 12:48.42 | 3:52.70 | 57642 | 75111
6 | 16:41.37 | 3:24.30 | 75112 | 90441
7 | 20:05.67 | 1:47.26 | 90442 | 98492
8 | 21:53.18 | 3:28.30 | 98493 | 114122
9 | 25:21.48 | 2:35.20 | 114123 | 125767
10 | 27:56.68 | 2:17.61 | 125768 | 136103
11 | 30:14.54 | 4:59.54 | 136104 | 158582
12 | 35:14.33 | 2:54.11 | 158583 | 171643
13 | 38:08.44 | 3:01.69 | 171644 | 185287
14 | 41:10.38 | 1:32.50 | 185288 | 192237

Track 1

Filename C:\Users\Sasha\Music\Fugazi\Repeater + 3 Songs (FLAC)\01 – Fugazi – Turnover.wav

Pre-gap length 0:00:02.00

Peak level 100.0 %
Track quality 100.0 %
Test CRC DE38F42F
Copy CRC DE38F42F
Accurately ripped (confidence 8) [DAF67EFF]
Copy OK

Track 2

Filename C:\Users\Sasha\Music\Fugazi\Repeater + 3 Songs (FLAC)\02 – Fugazi – Repeater.wav

Peak level 100.0 %
Track quality 100.0 %
Test CRC 871BB72A
Copy CRC 871BB72A
Accurately ripped (confidence 8) [F306E043]
Copy OK

Track 3

Filename C:\Users\Sasha\Music\Fugazi\Repeater + 3 Songs (FLAC)\03 – Fugazi – Brendan #1.wav

Peak level 100.0 %
Track quality 100.0 %
Test CRC A1DBF6EC
Copy CRC A1DBF6EC
Accurately ripped (confidence 8) [E5128E37]
Copy OK

Track 4

Filename C:\Users\Sasha\Music\Fugazi\Repeater + 3 Songs (FLAC)\04 – Fugazi – Merchandise.wav

Peak level 100.0 %
Track quality 99.9 %
Test CRC 99A398E9
Copy CRC 99A398E9
Accurately ripped (confidence 8) [28657870]
Copy OK

Track 5

Filename C:\Users\Sasha\Music\Fugazi\Repeater + 3 Songs (FLAC)\05 – Fugazi – Blueprint.wav

Pre-gap length 0:00:02.00

Peak level 100.0 %
Track quality 100.0 %
Test CRC 219F4890
Copy CRC 219F4890
Accurately ripped (confidence 8) [866B6AA7]
Copy OK

Track 6

Filename C:\Users\Sasha\Music\Fugazi\Repeater + 3 Songs (FLAC)\06 – Fugazi – Sieve-Fisted Find.wav

Pre-gap length 0:00:01.00

Peak level 100.0 %
Track quality 100.0 %
Test CRC B73275C9
Copy CRC B73275C9
Accurately ripped (confidence 8) [76E74535]
Copy OK

Track 7

Filename C:\Users\Sasha\Music\Fugazi\Repeater + 3 Songs (FLAC)\07 – Fugazi – Greed.wav

Peak level 96.9 %
Track quality 100.0 %
Test CRC AF0CB106
Copy CRC AF0CB106
Accurately ripped (confidence 8) [F4DEDF29]
Copy OK

Track 8

Filename C:\Users\Sasha\Music\Fugazi\Repeater + 3 Songs (FLAC)\08 – Fugazi – Two Beats Off.wav

Peak level 100.0 %
Track quality 100.0 %
Test CRC AD060F96
Copy CRC AD060F96
Accurately ripped (confidence 7) [1EAD1B47]
Copy OK

Track 9

Filename C:\Users\Sasha\Music\Fugazi\Repeater + 3 Songs (FLAC)\09 – Fugazi – Styrofoam.wav

Peak level 100.0 %
Track quality 100.0 %
Test CRC AB2221B5
Copy CRC AB2221B5
Accurately ripped (confidence 8) [E1FCDDB5]
Copy OK

Track 10

Filename C:\Users\Sasha\Music\Fugazi\Repeater + 3 Songs (FLAC)\10 – Fugazi – Reprovisional.wav

Peak level 100.0 %
Track quality 99.9 %
Test CRC C78001AA
Copy CRC C78001AA
Accurately ripped (confidence 8) [02ABCA1D]
Copy OK

Track 11

Filename C:\Users\Sasha\Music\Fugazi\Repeater + 3 Songs (FLAC)\11 – Fugazi – Shut the Door.wav

Peak level 100.0 %
Track quality 100.0 %
Test CRC 1999E9EB
Copy CRC 1999E9EB
Accurately ripped (confidence 8) [639E7F4B]
Copy OK

Track 12

Filename C:\Users\Sasha\Music\Fugazi\Repeater + 3 Songs (FLAC)\12 – Fugazi – Song #1.wav

Pre-gap length 0:00:12.00

Peak level 100.0 %
Track quality 100.0 %
Test CRC 2FE76180
Copy CRC 2FE76180
Accurately ripped (confidence 8) [D220180C]
Copy OK

Track 13

Filename C:\Users\Sasha\Music\Fugazi\Repeater + 3 Songs (FLAC)\13 – Fugazi – Joe #1.wav

Peak level 100.0 %
Track quality 100.0 %
Test CRC A3176DB5
Copy CRC A3176DB5
Accurately ripped (confidence 8) [90DDD2AE]
Copy OK

Track 14

Filename C:\Users\Sasha\Music\Fugazi\Repeater + 3 Songs (FLAC)\14 – Fugazi – Break-In.wav

Peak level 100.0 %
Track quality 99.8 %
Test CRC EB6A7ACE
Copy CRC EB6A7ACE
Accurately ripped (confidence 8) [6B5451BA]
Copy OK

All tracks accurately ripped

No errors occurred

End of status report

REM DATE 2005
REM DISCID AC0A030E
REM COMMENT “ExactAudioCopy v0.99pb4”
PERFORMER “Fugazi”
TITLE “Repeater + 3 Songs”
FILE “01. Turnover.wav” WAVE
TRACK 01 AUDIO
TITLE “Turnover”
PERFORMER “Fugazi”
INDEX 01 00:00:00
FILE “02. Repeater.wav” WAVE
TRACK 02 AUDIO
TITLE “Repeater”
PERFORMER “Fugazi”
INDEX 01 00:00:00
FILE “03. Brendan #1.wav” WAVE
TRACK 03 AUDIO
TITLE “Brendan #1”
PERFORMER “Fugazi”
INDEX 01 00:00:00
FILE “04. Merchandise.wav” WAVE
TRACK 04 AUDIO
TITLE “Merchandise”
PERFORMER “Fugazi”
INDEX 01 00:00:00
TRACK 05 AUDIO
TITLE “Blueprint”
PERFORMER “Fugazi”
INDEX 00 02:56:72
FILE “05. Blueprint.wav” WAVE
INDEX 01 00:00:00
TRACK 06 AUDIO
TITLE “Sieve-Fisted Find”
PERFORMER “Fugazi”
INDEX 00 03:51:70
FILE “06. Sieve-Fisted Find.wav” WAVE
INDEX 01 00:00:00
FILE “07. Greed.wav” WAVE
TRACK 07 AUDIO
TITLE “Greed”
PERFORMER “Fugazi”
INDEX 01 00:00:00
FILE “08. Two Beats Off.wav” WAVE
TRACK 08 AUDIO
TITLE “Two Beats Off”
PERFORMER “Fugazi”
INDEX 01 00:00:00
FILE “09. Styrofoam.wav” WAVE
TRACK 09 AUDIO
TITLE “Styrofoam”
PERFORMER “Fugazi”
INDEX 01 00:00:00
FILE “10. Reprovisional.wav” WAVE
TRACK 10 AUDIO
TITLE “Reprovisional”
PERFORMER “Fugazi”
INDEX 01 00:00:00
FILE “11. Shut the Door.wav” WAVE
TRACK 11 AUDIO
TITLE “Shut the Door”
PERFORMER “Fugazi”
INDEX 01 00:00:00
TRACK 12 AUDIO
TITLE “Song #1”
PERFORMER “Fugazi”
INDEX 00 04:47:54
FILE “12. Song #1.wav” WAVE
INDEX 01 00:00:00
FILE “13. Joe #1.wav” WAVE
TRACK 13 AUDIO
TITLE “Joe #1”
PERFORMER “Fugazi”
INDEX 01 00:00:00
FILE “14. Break-In.wav” WAVE
TRACK 14 AUDIO
TITLE “Break-In”
PERFORMER “Fugazi”
INDEX 01 00:00:00


Leave a Reply

Your email address will not be published. Required fields are marked *

Enter the text from the image below
 

This site uses Akismet to reduce spam. Learn how your comment data is processed.