Fugazi – Red Medicine (Remastered)




[Total: 0    Average: 0/5]

Artist: Fugazi
Year: 1995/2007
Genre: Rock
Notes: Discogs
Add. Notes: Remastered
Cover incl.: Yes
Encoder: FLAC
Bitrate: ~800 kBit/s (44.1 kHz/16 Bit/s)
Log & Cue incl.: Yes
Size: 371,62 MB
Password: “slam” (without ” “)


All Downloads/Hosters are compatible

Download 1
Share-online.biz
KatFile.com
Rapidgator.net
Download 2
Share-online.biz
KatFile.com
Rapidgator.net

Tracklist:

1 - Do You Like Me - 3:16
2 - Bed For The Scraping - 2:51
3 - Latest Disgrace - 3:35
4 - Birthday Pony - 3:09
5 - Forensic Scene - 3:05
6 - Combination Lock - 3:07
7 - Fell, Destroyed - 3:46
8 - By You - 5:12
9 - Version - 3:20
10 - Target - 3:32
11 - Back To Base - 1:45
12 - Downed City - 2:54
13 - Long Distance Runner - 4:22

EAC-Log, CUE-Sheed & NFO:

Click to open spoiler
Exact Audio Copy V1.1 from 23. June 2015

EAC extraction logfile from 30. January 2017, 0:51

Fugazi / Red Medicine

Used drive : HL-DT-STBD-RE BT11F Adapter: 1 ID: 0

Read mode : Secure
Utilize accurate stream : Yes
Defeat audio cache : Yes
Make use of C2 pointers : No

Read offset correction : 667
Overread into Lead-In and Lead-Out : No
Fill up missing offset samples with silence : Yes
Delete leading and trailing silent blocks : No
Null samples used in CRC calculations : Yes
Used interface : Native Win32 interface for Win NT & 2000
Gap handling : Appended to previous track

Used output format : User Defined Encoder
Selected bitrate : 128 kBit/s
Quality : High
Add ID3 tag : No
Command line compressor : C:\Program Files (x86)\FLAC\flac.exe
Additional command line options : -V -8 -T “Genre=%genre%” -T “Artist=%artist%” -T “Title=%title%” -T “Album=%albumtitle%” -T “Date=%year%” -T “Tracknumber=%tracknr%” -T “Comment=%comment%” %source%

TOC of the extracted CD

Track | Start | Length | Start sector | End sector
———————————————————
1 | 0:00.00 | 3:16.34 | 0 | 14733
2 | 3:16.34 | 2:50.18 | 14734 | 27501
3 | 6:06.52 | 3:34.38 | 27502 | 43589
4 | 9:41.15 | 3:08.60 | 43590 | 57749
5 | 12:50.00 | 3:05.02 | 57750 | 71626
6 | 15:55.02 | 3:06.45 | 71627 | 85621
7 | 19:01.47 | 3:46.18 | 85622 | 102589
8 | 22:47.65 | 5:11.50 | 102590 | 125964
9 | 27:59.40 | 3:20.02 | 125965 | 140966
10 | 31:19.42 | 3:32.13 | 140967 | 156879
11 | 34:51.55 | 1:45.12 | 156880 | 164766
12 | 36:36.67 | 2:53.58 | 164767 | 177799
13 | 39:30.50 | 4:17.57 | 177800 | 197131

Track 1

Filename D:\VovanKoperativ_Ripped_Music\Fugazi – Red Medicine [Remastered 2007] (FLAC)\01 Do You Like Me.wav

Pre-gap length 0:00:02.00

Peak level 99.4 %
Extraction speed 2.3 X
Track quality 100.0 %
Test CRC 5797BD2E
Copy CRC 5797BD2E
Accurately ripped (confidence 22) [0170A4B9] (AR v2)
Copy OK

Track 2

Filename D:\VovanKoperativ_Ripped_Music\Fugazi – Red Medicine [Remastered 2007] (FLAC)\02 Bed For The Scraping.wav

Peak level 99.4 %
Extraction speed 2.4 X
Track quality 100.0 %
Test CRC E6FDC467
Copy CRC E6FDC467
Accurately ripped (confidence 22) [D6E9F190] (AR v2)
Copy OK

Track 3

Filename D:\VovanKoperativ_Ripped_Music\Fugazi – Red Medicine [Remastered 2007] (FLAC)\03 Latest Disgrace.wav

Peak level 87.7 %
Extraction speed 2.7 X
Track quality 100.0 %
Test CRC 1FA73751
Copy CRC 1FA73751
Accurately ripped (confidence 22) [CBB5278D] (AR v2)
Copy OK

Track 4

Filename D:\VovanKoperativ_Ripped_Music\Fugazi – Red Medicine [Remastered 2007] (FLAC)\04 Birthday Pony.wav

Peak level 99.4 %
Extraction speed 2.8 X
Track quality 100.0 %
Test CRC 90C2D5D3
Copy CRC 90C2D5D3
Accurately ripped (confidence 22) [E87C0693] (AR v2)
Copy OK

Track 5

Filename D:\VovanKoperativ_Ripped_Music\Fugazi – Red Medicine [Remastered 2007] (FLAC)\05 Forensic Scene.wav

Pre-gap length 0:00:01.05

Peak level 91.1 %
Extraction speed 3.1 X
Track quality 100.0 %
Test CRC 1D1FDEBA
Copy CRC 1D1FDEBA
Accurately ripped (confidence 22) [3D7C9C2D] (AR v2)
Copy OK

Track 6

Filename D:\VovanKoperativ_Ripped_Music\Fugazi – Red Medicine [Remastered 2007] (FLAC)\06 Combination Lock.wav

Peak level 99.4 %
Extraction speed 3.1 X
Track quality 100.0 %
Test CRC 256DECDF
Copy CRC 256DECDF
Accurately ripped (confidence 22) [54CAEB37] (AR v2)
Copy OK

Track 7

Filename D:\VovanKoperativ_Ripped_Music\Fugazi – Red Medicine [Remastered 2007] (FLAC)\07 Fell, Destroyed.wav

Peak level 99.4 %
Extraction speed 3.4 X
Track quality 100.0 %
Test CRC 75F3EC24
Copy CRC 75F3EC24
Accurately ripped (confidence 22) [8A5129D3] (AR v2)
Copy OK

Track 8

Filename D:\VovanKoperativ_Ripped_Music\Fugazi – Red Medicine [Remastered 2007] (FLAC)\08 By You.wav

Peak level 97.6 %
Extraction speed 3.8 X
Track quality 100.0 %
Test CRC 2AFFFD13
Copy CRC 2AFFFD13
Accurately ripped (confidence 22) [75E67584] (AR v2)
Copy OK

Track 9

Filename D:\VovanKoperativ_Ripped_Music\Fugazi – Red Medicine [Remastered 2007] (FLAC)\09 Version.wav

Peak level 94.7 %
Extraction speed 3.7 X
Track quality 100.0 %
Test CRC A9FE42E8
Copy CRC A9FE42E8
Accurately ripped (confidence 22) [B3A5177C] (AR v2)
Copy OK

Track 10

Filename D:\VovanKoperativ_Ripped_Music\Fugazi – Red Medicine [Remastered 2007] (FLAC)\10 Target.wav

Peak level 99.4 %
Extraction speed 3.4 X
Track quality 99.9 %
Test CRC E87DDF7A
Copy CRC E87DDF7A
Accurately ripped (confidence 22) [F331A386] (AR v2)
Copy OK

Track 11

Filename D:\VovanKoperativ_Ripped_Music\Fugazi – Red Medicine [Remastered 2007] (FLAC)\11 Back To Base.wav

Peak level 99.4 %
Extraction speed 3.4 X
Track quality 100.0 %
Test CRC 84232B30
Copy CRC 84232B30
Accurately ripped (confidence 22) [72541E29] (AR v2)
Copy OK

Track 12

Filename D:\VovanKoperativ_Ripped_Music\Fugazi – Red Medicine [Remastered 2007] (FLAC)\12 Downed City.wav

Peak level 99.4 %
Extraction speed 4.0 X
Track quality 100.0 %
Test CRC D12FF67B
Copy CRC D12FF67B
Accurately ripped (confidence 22) [071E272D] (AR v2)
Copy OK

Track 13

Filename D:\VovanKoperativ_Ripped_Music\Fugazi – Red Medicine [Remastered 2007] (FLAC)\13 Long Distance Runner.wav

Peak level 99.4 %
Extraction speed 4.4 X
Track quality 100.0 %
Test CRC 310E9E5B
Copy CRC 310E9E5B
Accurately ripped (confidence 22) [1ACD9E36] (AR v2)
Copy OK

All tracks accurately ripped

No errors occurred

End of status report

—- CUETools DB Plugin V2.1.6

[CTDB TOCID: 1ekYcZU186zyJ1wVMH0000xbKoA-] found
Submit result: 1ekYcZU186zyJ1wVMH0000xbKoA- has been confirmed
Track | CTDB Status
1 | (27/27) Accurately ripped
2 | (27/27) Accurately ripped
3 | (27/27) Accurately ripped
4 | (27/27) Accurately ripped
5 | (27/27) Accurately ripped
6 | (26/27) Accurately ripped
7 | (27/27) Accurately ripped
8 | (27/27) Accurately ripped
9 | (27/27) Accurately ripped
10 | (27/27) Accurately ripped
11 | (27/27) Accurately ripped
12 | (27/27) Accurately ripped
13 | (27/27) Accurately ripped

==== Log checksum 51CA4E8B2DDFAB1B207B0907A4EDBA34E02F9F295C11B6D3FFC64EF598671E5A ====

REM DATE 2007
REM DISCID C80A440D
REM COMMENT “ExactAudioCopy v1.1”
PERFORMER “Fugazi”
TITLE “Red Medicine”
FILE “01. Do You Like Me.wav” WAVE
TRACK 01 AUDIO
TITLE “Do You Like Me”
PERFORMER “Fugazi”
INDEX 01 00:00:00
FILE “02. Bed For The Scraping.wav” WAVE
TRACK 02 AUDIO
TITLE “Bed For The Scraping”
PERFORMER “Fugazi”
INDEX 01 00:00:00
FILE “03. Latest Disgrace.wav” WAVE
TRACK 03 AUDIO
TITLE “Latest Disgrace”
PERFORMER “Fugazi”
INDEX 01 00:00:00
FILE “04. Birthday Pony.wav” WAVE
TRACK 04 AUDIO
TITLE “Birthday Pony”
PERFORMER “Fugazi”
INDEX 01 00:00:00
TRACK 05 AUDIO
TITLE “Forensic Scene”
PERFORMER “Fugazi”
INDEX 00 03:07:55
FILE “05. Forensic Scene.wav” WAVE
INDEX 01 00:00:00
FILE “06. Combination Lock.wav” WAVE
TRACK 06 AUDIO
TITLE “Combination Lock”
PERFORMER “Fugazi”
INDEX 01 00:00:00
FILE “07. Fell, Destroyed.wav” WAVE
TRACK 07 AUDIO
TITLE “Fell, Destroyed”
PERFORMER “Fugazi”
INDEX 01 00:00:00
FILE “08. By You.wav” WAVE
TRACK 08 AUDIO
TITLE “By You”
PERFORMER “Fugazi”
INDEX 01 00:00:00
FILE “09. Version.wav” WAVE
TRACK 09 AUDIO
TITLE “Version”
PERFORMER “Fugazi”
INDEX 01 00:00:00
FILE “10. Target.wav” WAVE
TRACK 10 AUDIO
TITLE “Target”
PERFORMER “Fugazi”
INDEX 01 00:00:00
FILE “11. Back To Base.wav” WAVE
TRACK 11 AUDIO
TITLE “Back To Base”
PERFORMER “Fugazi”
INDEX 01 00:00:00
FILE “12. Downed City.wav” WAVE
TRACK 12 AUDIO
TITLE “Downed City”
PERFORMER “Fugazi”
INDEX 01 00:00:00
FILE “13. Long Distance Runner.wav” WAVE
TRACK 13 AUDIO
TITLE “Long Distance Runner”
PERFORMER “Fugazi”
INDEX 01 00:00:00


Spread the Download

Leave a Reply

Your email address will not be published. Required fields are marked *

Enter the text from the image below
 

This site uses Akismet to reduce spam. Learn how your comment data is processed.