Fugazi – Instrument Soundtrack




Artist: Fugazi
Year: 1999
Genre: Punk
Notes: Discogs
Add. Notes:
Cover incl.: Yes
Encoder: FLAC
Bitrate: ~800 kBit/s (44.1 kHz/16 Bit/s)
Log & Cue incl.: Yes
Size: 285,71 MB
Password: “slam” (without ” “)


All Downloads/Hosters are compatible

Download 1
Turbobit.net
KatFile.com
Rapidgator.net
Download 2
Turbobit.net
KatFile.com
Rapidgator.net

Tracklist:

1 - Pink Frosty Demo - 3:47
2 - Lusty Scripps - 3:42
3 - Arpeggiator Demo - 2:54
4 - Afterthought - 1:29
5 - Trio's - 2:16
6 - Turkish Disco - 2:35
7 - Me And Thumbelina - 0:46
8 - Floating Boy Demo - 3:35
9 - Link Track - 1:27
10 - Little Debbie - 1:49
11 - H.B. - 1:19
12 - I'm So Tired - 1:59
13 - Rend It Demo - 3:32
14 - Closed Captioned Demo - 5:50
15 - Guilford Fall Demo - 3:29
16 - Swingset - 1:38
17 - Shaken All Over - 0:58
18 - Slo Crostic - 2:40

EAC-Log, CUE-Sheed & NFO:

Click to open spoiler
X Lossless Decoder version 20090320 (105.1)

XLD extraction logfile from 2009-05-17 09:56:38 -0700

Fugazi / Instrument Soundtrack

Used drive : MATSHITA DVD-R UJ-85J (revision FM0S)

Use cdparanoia mode : YES (CDParanoia III 10.2 engine)
Disable audio cache : OK for the drive with cache less than 2750KB
Make use of C2 pointers : NO
Read offset correction : 102
Max retry count : 100

TOC of the extracted CD
Track | Start | Length | Start sector | End sector
———————————————————
1 | 00:00:00 | 03:47:00 | 0 | 17024
2 | 03:47:00 | 03:42:27 | 17025 | 33701
3 | 07:29:27 | 02:54:15 | 33702 | 46766
4 | 10:23:42 | 01:28:43 | 46767 | 53409
5 | 11:52:10 | 02:15:52 | 53410 | 63586
6 | 14:07:62 | 02:34:63 | 63587 | 75199
7 | 16:42:50 | 00:45:60 | 75200 | 78634
8 | 17:28:35 | 03:34:72 | 78635 | 94756
9 | 21:03:32 | 01:26:38 | 94757 | 101244
10 | 22:29:70 | 01:49:15 | 101245 | 109434
11 | 24:19:10 | 01:19:25 | 109435 | 115384
12 | 25:38:35 | 01:58:70 | 115385 | 124304
13 | 27:37:30 | 03:32:12 | 124305 | 140216
14 | 31:09:42 | 05:50:03 | 140217 | 166469
15 | 36:59:45 | 03:29:35 | 166470 | 182179
16 | 40:29:05 | 01:37:50 | 182180 | 189504
17 | 42:06:55 | 00:58:07 | 189505 | 193861
18 | 43:04:62 | 02:40:63 | 193862 | 205924

List of alternate offset correction values
# | Absolute | Relative | Confidence
——————————————
1 | 114 | 12 | 5

Track 01
Filename : /Volumes/music/XLD RIPS/01 – Pink Frosty Demo (1996).flac

CRC32 hash (test run) : D70EC786
CRC32 hash : D70EC786
CRC32 hash (skip zero) : E221E6A0
AccurateRip signature : 67C1CF87
->Accurately ripped! (confidence 13)
Statistics
Read error : 0
Skipped (treated as error) : 0
Edge jitter error (maybe fixed) : 0
Atom jitter error (maybe fixed) : 0
Drift error (maybe fixed) : 0
Dropped bytes error (maybe fixed) : 0
Duplicated bytes error (maybe fixed) : 0
Inconsistency in error sectors : 0

Track 02
Filename : /Volumes/music/XLD RIPS/02 – Lusty Scripps (1994).flac

CRC32 hash (test run) : 57CD8FFB
CRC32 hash : 57CD8FFB
CRC32 hash (skip zero) : 42BADB86
AccurateRip signature : F6717C42
->Accurately ripped! (confidence 14)
Statistics
Read error : 0
Skipped (treated as error) : 0
Edge jitter error (maybe fixed) : 0
Atom jitter error (maybe fixed) : 0
Drift error (maybe fixed) : 0
Dropped bytes error (maybe fixed) : 0
Duplicated bytes error (maybe fixed) : 0
Inconsistency in error sectors : 0

Track 03
Filename : /Volumes/music/XLD RIPS/03 – Arpeggiator Demo (1997).flac

CRC32 hash (test run) : B12BF97F
CRC32 hash : B12BF97F
CRC32 hash (skip zero) : 6A01F147
AccurateRip signature : 750AB7C3
->Accurately ripped! (confidence 14)
Statistics
Read error : 0
Skipped (treated as error) : 0
Edge jitter error (maybe fixed) : 0
Atom jitter error (maybe fixed) : 0
Drift error (maybe fixed) : 0
Dropped bytes error (maybe fixed) : 0
Duplicated bytes error (maybe fixed) : 0
Inconsistency in error sectors : 0

Track 04
Filename : /Volumes/music/XLD RIPS/04 – Afterthought (1994).flac

CRC32 hash (test run) : 4422BAD4
CRC32 hash : 4422BAD4
CRC32 hash (skip zero) : 6C450A24
AccurateRip signature : 5E90BAA0
->Accurately ripped! (confidence 14)
Statistics
Read error : 0
Skipped (treated as error) : 0
Edge jitter error (maybe fixed) : 0
Atom jitter error (maybe fixed) : 0
Drift error (maybe fixed) : 0
Dropped bytes error (maybe fixed) : 0
Duplicated bytes error (maybe fixed) : 0
Inconsistency in error sectors : 0

Track 05
Filename : /Volumes/music/XLD RIPS/05 – Trio’s (1997).flac

CRC32 hash (test run) : 424C5D90
CRC32 hash : 424C5D90
CRC32 hash (skip zero) : 4F03F005
AccurateRip signature : 36AFE1A1
->Accurately ripped! (confidence 14)
Statistics
Read error : 0
Skipped (treated as error) : 0
Edge jitter error (maybe fixed) : 0
Atom jitter error (maybe fixed) : 0
Drift error (maybe fixed) : 0
Dropped bytes error (maybe fixed) : 0
Duplicated bytes error (maybe fixed) : 0
Inconsistency in error sectors : 0

Track 06
Filename : /Volumes/music/XLD RIPS/06 – Turkish Disco (1997).flac

CRC32 hash (test run) : 0D9AB376
CRC32 hash : 0D9AB376
CRC32 hash (skip zero) : E28511A3
AccurateRip signature : 0D1EFCF3
->Accurately ripped! (confidence 14)
Statistics
Read error : 0
Skipped (treated as error) : 0
Edge jitter error (maybe fixed) : 0
Atom jitter error (maybe fixed) : 0
Drift error (maybe fixed) : 0
Dropped bytes error (maybe fixed) : 0
Duplicated bytes error (maybe fixed) : 0
Inconsistency in error sectors : 0

Track 07
Filename : /Volumes/music/XLD RIPS/07 – Me & Thumbelina (1994).flac

CRC32 hash (test run) : 77D0E9C9
CRC32 hash : 77D0E9C9
CRC32 hash (skip zero) : 715F4616
AccurateRip signature : C12A636E
->Accurately ripped! (confidence 14)
Statistics
Read error : 0
Skipped (treated as error) : 0
Edge jitter error (maybe fixed) : 0
Atom jitter error (maybe fixed) : 0
Drift error (maybe fixed) : 0
Dropped bytes error (maybe fixed) : 0
Duplicated bytes error (maybe fixed) : 0
Inconsistency in error sectors : 0

Track 08
Filename : /Volumes/music/XLD RIPS/08 – Floating Boy Demo (1996).flac

CRC32 hash (test run) : 891B859D
CRC32 hash : 891B859D
CRC32 hash (skip zero) : 1869418E
AccurateRip signature : 039EF974
->Accurately ripped! (confidence 14)
Statistics
Read error : 0
Skipped (treated as error) : 0
Edge jitter error (maybe fixed) : 0
Atom jitter error (maybe fixed) : 0
Drift error (maybe fixed) : 0
Dropped bytes error (maybe fixed) : 0
Duplicated bytes error (maybe fixed) : 0
Inconsistency in error sectors : 0

Track 09
Filename : /Volumes/music/XLD RIPS/09 – Link Track (1989).flac

CRC32 hash (test run) : 95AB9257
CRC32 hash : 95AB9257
CRC32 hash (skip zero) : FE51DFFA
AccurateRip signature : E88360AB
->Accurately ripped! (confidence 14)
Statistics
Read error : 0
Skipped (treated as error) : 0
Edge jitter error (maybe fixed) : 0
Atom jitter error (maybe fixed) : 0
Drift error (maybe fixed) : 0
Dropped bytes error (maybe fixed) : 0
Duplicated bytes error (maybe fixed) : 0
Inconsistency in error sectors : 0

Track 10
Filename : /Volumes/music/XLD RIPS/10 – Little Debbie (1994).flac

CRC32 hash (test run) : 0B28FFC6
CRC32 hash : 0B28FFC6
CRC32 hash (skip zero) : 6BFD6931
AccurateRip signature : 09D55436
->Accurately ripped! (confidence 14)
Statistics
Read error : 0
Skipped (treated as error) : 0
Edge jitter error (maybe fixed) : 0
Atom jitter error (maybe fixed) : 0
Drift error (maybe fixed) : 0
Dropped bytes error (maybe fixed) : 0
Duplicated bytes error (maybe fixed) : 0
Inconsistency in error sectors : 0

Track 11
Filename : /Volumes/music/XLD RIPS/11 – H.B. (1997).flac

CRC32 hash (test run) : 0EFC7931
CRC32 hash : 0EFC7931
CRC32 hash (skip zero) : 990978E1
AccurateRip signature : E5505E6F
->Accurately ripped! (confidence 14)
Statistics
Read error : 0
Skipped (treated as error) : 0
Edge jitter error (maybe fixed) : 0
Atom jitter error (maybe fixed) : 0
Drift error (maybe fixed) : 0
Dropped bytes error (maybe fixed) : 0
Duplicated bytes error (maybe fixed) : 0
Inconsistency in error sectors : 0

Track 12
Filename : /Volumes/music/XLD RIPS/12 – I’m So Tired (1994).flac

CRC32 hash (test run) : 639FAFE5
CRC32 hash : 639FAFE5
CRC32 hash (skip zero) : 1D035445
AccurateRip signature : 3B7BD64E
->Accurately ripped! (confidence 14)
Statistics
Read error : 0
Skipped (treated as error) : 0
Edge jitter error (maybe fixed) : 0
Atom jitter error (maybe fixed) : 0
Drift error (maybe fixed) : 0
Dropped bytes error (maybe fixed) : 0
Duplicated bytes error (maybe fixed) : 0
Inconsistency in error sectors : 0

Track 13
Filename : /Volumes/music/XLD RIPS/13 – Rend it Demo (1992).flac

CRC32 hash (test run) : A247D8AC
CRC32 hash : A247D8AC
CRC32 hash (skip zero) : 3E14413B
AccurateRip signature : 99CE58F4
->Accurately ripped! (confidence 14)
Statistics
Read error : 0
Skipped (treated as error) : 0
Edge jitter error (maybe fixed) : 0
Atom jitter error (maybe fixed) : 0
Drift error (maybe fixed) : 0
Dropped bytes error (maybe fixed) : 0
Duplicated bytes error (maybe fixed) : 0
Inconsistency in error sectors : 0

Track 14
Filename : /Volumes/music/XLD RIPS/14 – Closed Captioned Demo (1997).flac

CRC32 hash (test run) : 1B51EE0D
CRC32 hash : 1B51EE0D
CRC32 hash (skip zero) : 8BBB91AF
AccurateRip signature : 3FD90DE2
->Accurately ripped! (confidence 14)
Statistics
Read error : 0
Skipped (treated as error) : 0
Edge jitter error (maybe fixed) : 0
Atom jitter error (maybe fixed) : 0
Drift error (maybe fixed) : 0
Dropped bytes error (maybe fixed) : 0
Duplicated bytes error (maybe fixed) : 0
Inconsistency in error sectors : 0

Track 15
Filename : /Volumes/music/XLD RIPS/15 – Guilford Fall Demo (1996).flac

CRC32 hash (test run) : 164BB701
CRC32 hash : 164BB701
CRC32 hash (skip zero) : 84A961D7
AccurateRip signature : D5F7B4BB
->Accurately ripped! (confidence 14)
Statistics
Read error : 0
Skipped (treated as error) : 0
Edge jitter error (maybe fixed) : 0
Atom jitter error (maybe fixed) : 0
Drift error (maybe fixed) : 0
Dropped bytes error (maybe fixed) : 0
Duplicated bytes error (maybe fixed) : 0
Inconsistency in error sectors : 0

Track 16
Filename : /Volumes/music/XLD RIPS/16 – Swingset (1994).flac

CRC32 hash (test run) : 80ED57C2
CRC32 hash : 80ED57C2
CRC32 hash (skip zero) : DCA8B99A
AccurateRip signature : 388A16D7
->Accurately ripped! (confidence 14)
Statistics
Read error : 0
Skipped (treated as error) : 0
Edge jitter error (maybe fixed) : 0
Atom jitter error (maybe fixed) : 0
Drift error (maybe fixed) : 0
Dropped bytes error (maybe fixed) : 0
Duplicated bytes error (maybe fixed) : 0
Inconsistency in error sectors : 0

Track 17
Filename : /Volumes/music/XLD RIPS/17 – Shaken all Over (1991).flac

CRC32 hash (test run) : EF626F20
CRC32 hash : EF626F20
CRC32 hash (skip zero) : 8A57237B
AccurateRip signature : 4D5B5D6F
->Accurately ripped! (confidence 14)
Statistics
Read error : 0
Skipped (treated as error) : 0
Edge jitter error (maybe fixed) : 0
Atom jitter error (maybe fixed) : 0
Drift error (maybe fixed) : 0
Dropped bytes error (maybe fixed) : 0
Duplicated bytes error (maybe fixed) : 0
Inconsistency in error sectors : 0

Track 18
Filename : /Volumes/music/XLD RIPS/18 – Slo Crostic (1996).flac

CRC32 hash (test run) : 10E4CCAB
CRC32 hash : 10E4CCAB
CRC32 hash (skip zero) : CE515E4E
AccurateRip signature : 7A3FD356
->Accurately ripped! (confidence 14)
Statistics
Read error : 0
Skipped (treated as error) : 0
Edge jitter error (maybe fixed) : 0
Atom jitter error (maybe fixed) : 0
Drift error (maybe fixed) : 0
Dropped bytes error (maybe fixed) : 0
Duplicated bytes error (maybe fixed) : 0
Inconsistency in error sectors : 0

No errors occurred

End of status report

TITLE “Instrument Soundtrack”
PERFORMER “Fugazi”
REM DATE 1999
FILE “01. Pink Frosty Demo (1996).wav” WAVE
TRACK 01 AUDIO
TITLE “Pink Frosty Demo”
INDEX 01 00:00:00
FILE “02. Lusty Scripps (1994).wav” WAVE
TRACK 02 AUDIO
TITLE “Lusty Scripps”
INDEX 01 00:00:00
FILE “03. Arpeggiator Demo (1997).wav” WAVE
TRACK 03 AUDIO
TITLE “Arpeggiator Demo”
INDEX 01 00:00:00
FILE “04. Afterthought (1994).wav” WAVE
TRACK 04 AUDIO
TITLE “Afterthought”
INDEX 01 00:00:00
FILE “05. Trio’s (1997).wav” WAVE
TRACK 05 AUDIO
TITLE “Trio’s”
INDEX 01 00:00:00
FILE “06. Turkish Disco (1997).wav” WAVE
TRACK 06 AUDIO
TITLE “Turkish Disco”
INDEX 01 00:00:00
FILE “07. Me & Thumbelina (1994).wav” WAVE
TRACK 07 AUDIO
TITLE “Me & Thumbelina”
INDEX 01 00:00:00
FILE “08. Floating Boy Demo (1996).wav” WAVE
TRACK 08 AUDIO
TITLE “Floating Boy Demo”
INDEX 01 00:00:00
FILE “09. Link Track (1989).wav” WAVE
TRACK 09 AUDIO
TITLE “Link Track”
INDEX 01 00:00:00
FILE “10. Little Debbie (1994).wav” WAVE
TRACK 10 AUDIO
TITLE “Little Debbie”
INDEX 01 00:00:00
FILE “11. H. B. (1997).wav” WAVE
TRACK 11 AUDIO
TITLE “H. B.”
INDEX 01 00:00:00
FILE “12. I’m So Tired (1994).wav” WAVE
TRACK 12 AUDIO
TITLE “I’m So Tired”
INDEX 01 00:00:00
FILE “13. Rend It Demo (1992).wav” WAVE
TRACK 13 AUDIO
TITLE “Rend It Demo”
INDEX 01 00:00:00
FILE “14. Closed Captioned Demo (1997).wav” WAVE
TRACK 14 AUDIO
TITLE “Closed Captioned Demo”
INDEX 01 00:00:00
FILE “15. Guilford Fall Demo (1996).wav” WAVE
TRACK 15 AUDIO
TITLE “Guilford Fall Demo”
INDEX 01 00:00:00
FILE “16. Swingset (1994).wav” WAVE
TRACK 16 AUDIO
TITLE “Swingset”
INDEX 01 00:00:00
FILE “17. Shaken All Over (1991).wav” WAVE
TRACK 17 AUDIO
TITLE “Shaken All Over”
INDEX 01 00:00:00
FILE “18. Slo Crostic (1996).wav” WAVE
TRACK 18 AUDIO
TITLE “Slo Crostic”
INDEX 01 00:00:00


Leave a Reply

Your email address will not be published. Required fields are marked *

This site uses Akismet to reduce spam. Learn how your comment data is processed.