Fugazi – In On The Kill Taker (Remastered)




[Total: 0    Average: 0/5]

Artist: Fugazi
Year: 2004
Genre: Hardcore
Notes: Discogs
Add. Notes: Remastered
Cover incl.: Yes
Encoder: FLAC
Bitrate: ~800 kBit/s (44.1 kHz/16 Bit/s)
Log & Cue incl.: Yes
Size: 279,87 MB
Password: “slam” (without ” “)


All Downloads/Hosters are compatible

Download 1
Share-online.biz
KatFile.com
Rapidgator.net
Download 2
Share-online.biz
KatFile.com
Rapidgator.net

Tracklist:

1 - Facet Squared - 2:41
2 - Public Witness Program - 2:05
3 - Returning The Screw - 3:14
4 - Smallpox Champion - 4:01
5 - Rend It - 3:47
6 - 23 Beats Off - 6:43
7 - Sweet And Low - 3:35
8 - Cassavetes - 2:30
9 - Great Cop - 1:52
10 - Walken's Syndrome - 3:18
11 - Instrument - 3:44
12 - Last Chance For A Slow Dance - 4:37

EAC-Log, CUE-Sheed & NFO:

Click to open spoiler
EAC extraction logfile from 30. January 2006, 16:36 for CD
Fugazi / In on the Kill Taker

Used drive : SONY DVD RW DRU-710A Adapter: 0 ID: 0
Read mode : Secure with NO C2, accurate stream, disable cache
Read offset correction : 12
Overread into Lead-In and Lead-Out : No

Used output format : Internal WAV Routines
44.100 Hz; 16 Bit; Stereo

Other options :
Fill up missing offset samples with silence : Yes
Delete leading and trailing silent blocks : No
Installed external ASPI interface

Track 1
Filename C:\Rips\01 – Facet Squared.wav

Pre-gap length 0:00:02.00

Peak level 100.0 %
Track quality 100.0 %
Test CRC FEE420F9
Copy CRC FEE420F9
Copy OK

Track 2
Filename C:\Rips\02 – Public Witness Program.wav

Peak level 98.7 %
Track quality 99.9 %
Test CRC 42C6F1B2
Copy CRC 42C6F1B2
Copy OK

Track 3
Filename C:\Rips\03 – Returning The Screw.wav

Peak level 100.0 %
Track quality 100.0 %
Test CRC 5E06F3DB
Copy CRC 5E06F3DB
Copy OK

Track 4
Filename C:\Rips\04 – Smallpox Champion.wav

Peak level 100.0 %
Track quality 100.0 %
Test CRC 80EF4A25
Copy CRC 80EF4A25
Copy OK

Track 5
Filename C:\Rips\05 – Rend It.wav

Peak level 100.0 %
Track quality 100.0 %
Test CRC 2B7AC097
Copy CRC 2B7AC097
Copy OK

Track 6
Filename C:\Rips\06 – 23 Beats Off.wav

Peak level 100.0 %
Track quality 100.0 %
Test CRC 919BBBE8
Copy CRC 919BBBE8
Copy OK

Track 7
Filename C:\Rips\07 – Sweet And Low.wav

Peak level 100.0 %
Track quality 100.0 %
Test CRC 339B0414
Copy CRC 339B0414
Copy OK

Track 8
Filename C:\Rips\08 – Cassavetes.wav

Peak level 100.0 %
Track quality 99.9 %
Test CRC 35085B04
Copy CRC 35085B04
Copy OK

Track 9
Filename C:\Rips\09 – Great Cop.wav

Peak level 100.0 %
Track quality 99.9 %
Test CRC AE8C7E12
Copy CRC AE8C7E12
Copy OK

Track 10
Filename C:\Rips\10 – Walken’s Syndrome.wav

Peak level 100.0 %
Track quality 99.9 %
Test CRC 0F82B7A8
Copy CRC 0F82B7A8
Copy OK

Track 11
Filename C:\Rips\11 – Instrument.wav

Peak level 100.0 %
Track quality 100.0 %
Test CRC C794C90A
Copy CRC C794C90A
Copy OK

Track 12
Filename C:\Rips\12 – Last Chance For A Slow Dance.wav

Peak level 100.0 %
Track quality 100.0 %
Test CRC 1B391E29
Copy CRC 1B391E29
Copy OK

No errors occured

End of status report

REM DATE 2004
REM DISCID 9F09DE0C
REM COMMENT “ExactAudioCopy v0.95b3”
PERFORMER “Fugazi”
TITLE “In On The Kill Taker”
FILE “01. Facet Squared.wav” WAVE
TRACK 01 AUDIO
TITLE “Facet Squared”
PERFORMER “Fugazi”
INDEX 01 00:00:00
FILE “02. Public Witness Program.wav” WAVE
TRACK 02 AUDIO
TITLE “Public Witness Program”
PERFORMER “Fugazi”
INDEX 01 00:00:00
FILE “03. Returning The Screw.wav” WAVE
TRACK 03 AUDIO
TITLE “Returning The Screw”
PERFORMER “Fugazi”
INDEX 01 00:00:00
FILE “04. Smallpox Champion.wav” WAVE
TRACK 04 AUDIO
TITLE “Smallpox Champion”
PERFORMER “Fugazi”
INDEX 01 00:00:00
FILE “05. Rend It.wav” WAVE
TRACK 05 AUDIO
TITLE “Rend It”
PERFORMER “Fugazi”
INDEX 01 00:00:00
FILE “06. 23 Beats Off.wav” WAVE
TRACK 06 AUDIO
TITLE “23 Beats Off”
PERFORMER “Fugazi”
INDEX 01 00:00:00
FILE “07. Sweet And Low.wav” WAVE
TRACK 07 AUDIO
TITLE “Sweet And Low”
PERFORMER “Fugazi”
INDEX 01 00:00:00
FILE “08. Cassavetes.wav” WAVE
TRACK 08 AUDIO
TITLE “Cassavetes”
PERFORMER “Fugazi”
INDEX 01 00:00:00
FILE “09. Great Cop.wav” WAVE
TRACK 09 AUDIO
TITLE “Great Cop”
PERFORMER “Fugazi”
INDEX 01 00:00:00
FILE “10. Walken’s Syndrome.wav” WAVE
TRACK 10 AUDIO
TITLE “Walken’s Syndrome”
PERFORMER “Fugazi”
INDEX 01 00:00:00
FILE “11. Instrument.wav” WAVE
TRACK 11 AUDIO
TITLE “Instrument”
PERFORMER “Fugazi”
INDEX 01 00:00:00
FILE “12. Last Chance For A Slow Dance.wav” WAVE
TRACK 12 AUDIO
TITLE “Last Chance For A Slow Dance”
PERFORMER “Fugazi”
INDEX 01 00:00:00


Spread the Download

Leave a Reply

Your email address will not be published. Required fields are marked *

Enter the text from the image below
 

This site uses Akismet to reduce spam. Learn how your comment data is processed.