Fugazi – First Demo (2014)




Artist: Fugazi
Year: 2014
Genre: Punk
Notes: Discogs
Add. Notes:
Cover incl.: Yes
Encoder: FLAC
Bitrate: ~1000 kBit/s (44.1 kHz/16 Bit/s)
Log & Cue incl.: Yes
Size: 254,63 MB
Password: “slam” (without ” “)


All Downloads/Hosters are compatible

Download 1
Turbobit.net
NitroFlare.com
KatFile.com
Rapidgator.net
Download 2
Turbobit.net
NitroFlare.com
KatFile.com
Rapidgator.net

Tracklist:

1. Waiting Room 	
2. Merchandise 	
3. Furniture 	
4. Song #1 	
5. The Word 	
6. Bad Mouth 	
7. Break-In 	
8. Turn Off Your Guns 	
9. And The Same 	
10. In Defense Of Humans 	
11. Joe #1

EAC-Log, CUE-Sheed & NFO:

Click to open spoiler
X Lossless Decoder version 20141109 (148.0)

XLD extraction logfile from 2014-11-13 00:13:38 -0700

Fugazi / First Demo

Used drive : MATSHITA DVD-R UJ-868 (revision KB19)
Media type : Pressed CD

Ripper mode : XLD Secure Ripper
Disable audio cache : OK for the drive with a cache less than 1375KiB
Make use of C2 pointers : NO
Read offset correction : 102
Max retry count : 100
Gap status : Analyzed, Appended (except HTOA)

TOC of the extracted CD
Track | Start | Length | Start sector | End sector
———————————————————
1 | 00:00:00 | 03:10:34 | 0 | 14283
2 | 03:10:34 | 03:07:34 | 14284 | 28342
3 | 06:17:68 | 04:07:24 | 28343 | 46891
4 | 10:25:17 | 03:00:20 | 46892 | 60411
5 | 13:25:37 | 04:38:43 | 60412 | 81304
6 | 18:04:05 | 02:53:73 | 81305 | 94352
7 | 20:58:03 | 01:36:35 | 94353 | 101587
8 | 22:34:38 | 03:43:07 | 101588 | 118319
9 | 26:17:45 | 05:08:29 | 118320 | 141448
10 | 31:25:74 | 02:47:19 | 141449 | 153992
11 | 34:13:18 | 01:41:43 | 153993 | 161610

AccurateRip Summary
Disc not found in AccurateRip DB.

All Tracks
Album gain : -7.40 dB
Peak : 0.988525
Statistics
Read error : 0
Jitter error (maybe fixed) : 0
Retry sector count : 1
Damaged sector count : 0

Track 01
Filename : /Users/zorro/Music/Ripped/Fugazi – First Demo (2014) [FLAC]/01 Waiting Room.flac
/Users/zorro/Music/Ripped/Fugazi – First Demo (2014) [V0]/01 Waiting Room.mp3
/Users/zorro/Music/Ripped/Fugazi – First Demo (2014) [V2]/01 Waiting Room.mp3
/Users/zorro/Music/Ripped/Fugazi – First Demo (2014) [320]/01 Waiting Room.mp3
Pre-gap length : 00:02:00

Track gain : -7.25 dB
Peak : 0.988525
CRC32 hash (test run) : A1CFC22F
CRC32 hash : A1CFC22F
CRC32 hash (skip zero) : DE51E3AC
AccurateRip v1 signature : 9E12B08E
AccurateRip v2 signature : 0EFC2E35
->Track not present in AccurateRip database.
Statistics
Read error : 0
Jitter error (maybe fixed) : 0
Retry sector count : 1
Damaged sector count : 0

Track 02
Filename : /Users/zorro/Music/Ripped/Fugazi – First Demo (2014) [FLAC]/02 Merchandise.flac
/Users/zorro/Music/Ripped/Fugazi – First Demo (2014) [V0]/02 Merchandise.mp3
/Users/zorro/Music/Ripped/Fugazi – First Demo (2014) [V2]/02 Merchandise.mp3
/Users/zorro/Music/Ripped/Fugazi – First Demo (2014) [320]/02 Merchandise.mp3

Track gain : -7.32 dB
Peak : 0.988525
CRC32 hash (test run) : 80748556
CRC32 hash : 80748556
CRC32 hash (skip zero) : EB455821
AccurateRip v1 signature : F636E5AC
AccurateRip v2 signature : EB95AA69
->Track not present in AccurateRip database.
Statistics
Read error : 0
Jitter error (maybe fixed) : 0
Retry sector count : 0
Damaged sector count : 0

Track 03
Filename : /Users/zorro/Music/Ripped/Fugazi – First Demo (2014) [FLAC]/03 Furniture.flac
/Users/zorro/Music/Ripped/Fugazi – First Demo (2014) [V0]/03 Furniture.mp3
/Users/zorro/Music/Ripped/Fugazi – First Demo (2014) [V2]/03 Furniture.mp3
/Users/zorro/Music/Ripped/Fugazi – First Demo (2014) [320]/03 Furniture.mp3

Track gain : -6.72 dB
Peak : 0.988525
CRC32 hash (test run) : 8503F170
CRC32 hash : 8503F170
CRC32 hash (skip zero) : 97BB32CE
AccurateRip v1 signature : 2A7570E1
AccurateRip v2 signature : D8253402
->Track not present in AccurateRip database.
Statistics
Read error : 0
Jitter error (maybe fixed) : 0
Retry sector count : 0
Damaged sector count : 0

Track 04
Filename : /Users/zorro/Music/Ripped/Fugazi – First Demo (2014) [FLAC]/04 Song #1.flac
/Users/zorro/Music/Ripped/Fugazi – First Demo (2014) [V0]/04 Song #1.mp3
/Users/zorro/Music/Ripped/Fugazi – First Demo (2014) [V2]/04 Song #1.mp3
/Users/zorro/Music/Ripped/Fugazi – First Demo (2014) [320]/04 Song #1.mp3

Track gain : -7.02 dB
Peak : 0.988525
CRC32 hash (test run) : EFE4E2B6
CRC32 hash : EFE4E2B6
CRC32 hash (skip zero) : DD83D315
AccurateRip v1 signature : 8F88839A
AccurateRip v2 signature : 372D5431
->Track not present in AccurateRip database.
Statistics
Read error : 0
Jitter error (maybe fixed) : 0
Retry sector count : 0
Damaged sector count : 0

Track 05
Filename : /Users/zorro/Music/Ripped/Fugazi – First Demo (2014) [FLAC]/05 The Word.flac
/Users/zorro/Music/Ripped/Fugazi – First Demo (2014) [V0]/05 The Word.mp3
/Users/zorro/Music/Ripped/Fugazi – First Demo (2014) [V2]/05 The Word.mp3
/Users/zorro/Music/Ripped/Fugazi – First Demo (2014) [320]/05 The Word.mp3

Track gain : -7.53 dB
Peak : 0.988525
CRC32 hash (test run) : B36259D1
CRC32 hash : B36259D1
CRC32 hash (skip zero) : 34EB5C98
AccurateRip v1 signature : 47F208E2
AccurateRip v2 signature : 790B3C8E
->Track not present in AccurateRip database.
Statistics
Read error : 0
Jitter error (maybe fixed) : 0
Retry sector count : 0
Damaged sector count : 0

Track 06
Filename : /Users/zorro/Music/Ripped/Fugazi – First Demo (2014) [FLAC]/06 Badmouth.flac
/Users/zorro/Music/Ripped/Fugazi – First Demo (2014) [V0]/06 Badmouth.mp3
/Users/zorro/Music/Ripped/Fugazi – First Demo (2014) [V2]/06 Badmouth.mp3
/Users/zorro/Music/Ripped/Fugazi – First Demo (2014) [320]/06 Badmouth.mp3

Track gain : -6.97 dB
Peak : 0.988525
CRC32 hash (test run) : E79F66CD
CRC32 hash : E79F66CD
CRC32 hash (skip zero) : E12B6B72
AccurateRip v1 signature : DFCDDF13
AccurateRip v2 signature : D2D028D5
->Track not present in AccurateRip database.
Statistics
Read error : 0
Jitter error (maybe fixed) : 0
Retry sector count : 0
Damaged sector count : 0

Track 07
Filename : /Users/zorro/Music/Ripped/Fugazi – First Demo (2014) [FLAC]/07 Break-In.flac
/Users/zorro/Music/Ripped/Fugazi – First Demo (2014) [V0]/07 Break-In.mp3
/Users/zorro/Music/Ripped/Fugazi – First Demo (2014) [V2]/07 Break-In.mp3
/Users/zorro/Music/Ripped/Fugazi – First Demo (2014) [320]/07 Break-In.mp3

Track gain : -7.71 dB
Peak : 0.988525
CRC32 hash (test run) : 43538224
CRC32 hash : 43538224
CRC32 hash (skip zero) : 9EA1EFD7
AccurateRip v1 signature : 98A95A00
AccurateRip v2 signature : 0F72EF37
->Track not present in AccurateRip database.
Statistics
Read error : 0
Jitter error (maybe fixed) : 0
Retry sector count : 0
Damaged sector count : 0

Track 08
Filename : /Users/zorro/Music/Ripped/Fugazi – First Demo (2014) [FLAC]/08 Turn Off Your Guns.flac
/Users/zorro/Music/Ripped/Fugazi – First Demo (2014) [V0]/08 Turn Off Your Guns.mp3
/Users/zorro/Music/Ripped/Fugazi – First Demo (2014) [V2]/08 Turn Off Your Guns.mp3
/Users/zorro/Music/Ripped/Fugazi – First Demo (2014) [320]/08 Turn Off Your Guns.mp3

Track gain : -7.14 dB
Peak : 0.988525
CRC32 hash (test run) : 5C4A1977
CRC32 hash : 5C4A1977
CRC32 hash (skip zero) : 5ABF8605
AccurateRip v1 signature : 6A126C6D
AccurateRip v2 signature : 85314DC9
->Track not present in AccurateRip database.
Statistics
Read error : 0
Jitter error (maybe fixed) : 0
Retry sector count : 0
Damaged sector count : 0

Track 09
Filename : /Users/zorro/Music/Ripped/Fugazi – First Demo (2014) [FLAC]/09 And The Same.flac
/Users/zorro/Music/Ripped/Fugazi – First Demo (2014) [V0]/09 And The Same.mp3
/Users/zorro/Music/Ripped/Fugazi – First Demo (2014) [V2]/09 And The Same.mp3
/Users/zorro/Music/Ripped/Fugazi – First Demo (2014) [320]/09 And The Same.mp3

Track gain : -7.68 dB
Peak : 0.988525
CRC32 hash (test run) : 4F05E81F
CRC32 hash : 4F05E81F
CRC32 hash (skip zero) : B2A80805
AccurateRip v1 signature : 163F7079
AccurateRip v2 signature : 2A46CD9C
->Track not present in AccurateRip database.
Statistics
Read error : 0
Jitter error (maybe fixed) : 0
Retry sector count : 0
Damaged sector count : 0

Track 10
Filename : /Users/zorro/Music/Ripped/Fugazi – First Demo (2014) [FLAC]/10 In Defense Of Humans.flac
/Users/zorro/Music/Ripped/Fugazi – First Demo (2014) [V0]/10 In Defense Of Humans.mp3
/Users/zorro/Music/Ripped/Fugazi – First Demo (2014) [V2]/10 In Defense Of Humans.mp3
/Users/zorro/Music/Ripped/Fugazi – First Demo (2014) [320]/10 In Defense Of Humans.mp3

Track gain : -7.86 dB
Peak : 0.988525
CRC32 hash (test run) : 68E0008C
CRC32 hash : 68E0008C
CRC32 hash (skip zero) : 2F8872C0
AccurateRip v1 signature : 2428305F
AccurateRip v2 signature : A322EA27
->Track not present in AccurateRip database.
Statistics
Read error : 0
Jitter error (maybe fixed) : 0
Retry sector count : 0
Damaged sector count : 0

Track 11
Filename : /Users/zorro/Music/Ripped/Fugazi – First Demo (2014) [FLAC]/11 Joe #1.flac
/Users/zorro/Music/Ripped/Fugazi – First Demo (2014) [V0]/11 Joe #1.mp3
/Users/zorro/Music/Ripped/Fugazi – First Demo (2014) [V2]/11 Joe #1.mp3
/Users/zorro/Music/Ripped/Fugazi – First Demo (2014) [320]/11 Joe #1.mp3

Track gain : -6.41 dB
Peak : 0.988525
CRC32 hash (test run) : E1AE5680
CRC32 hash : E1AE5680
CRC32 hash (skip zero) : C78B5A37
AccurateRip v1 signature : 1266DA0D
AccurateRip v2 signature : CA12241B
->Track not present in AccurateRip database.
Statistics
Read error : 0
Jitter error (maybe fixed) : 0
Retry sector count : 0
Damaged sector count : 0

No errors occurred

End of status report

—–BEGIN XLD SIGNATURE—–
FzSp91YTqO.zWuwXlE1D317ZNkiUwbySudBxPg2IczKfVyOJvXrYDyrz56IYrZeZRRmJ5CORBE.FFEvLfxHfEJBS27sMN38049fagfu
—–END XLD SIGNATURE—–

TITLE “first demo”
PERFORMER “Fugazi”
REM DATE “2014”
REM DISCID A0086A0B
REM REPLAYGAIN_ALBUM_GAIN -7.40 dB
REM REPLAYGAIN_ALBUM_PEAK 0.988525
FILE “01. Waiting Room.flac” WAVE
TRACK 01 AUDIO
TITLE “Waiting Room”
ISRC US35U1418101
REM REPLAYGAIN_TRACK_GAIN -7.25 dB
REM REPLAYGAIN_TRACK_PEAK 0.988525
INDEX 01 00:00:00
FILE “02. Merchandise.flac” WAVE
TRACK 02 AUDIO
TITLE “Merchandise”
ISRC US35U1418102
REM REPLAYGAIN_TRACK_GAIN -7.32 dB
REM REPLAYGAIN_TRACK_PEAK 0.988525
INDEX 01 00:00:00
FILE “03. Furniture.flac” WAVE
TRACK 03 AUDIO
TITLE “Furniture”
ISRC US35U1418103
REM REPLAYGAIN_TRACK_GAIN -6.72 dB
REM REPLAYGAIN_TRACK_PEAK 0.988525
INDEX 01 00:00:00
FILE “04. Song #1.flac” WAVE
TRACK 04 AUDIO
TITLE “Song #1”
ISRC US35U1418104
REM REPLAYGAIN_TRACK_GAIN -7.02 dB
REM REPLAYGAIN_TRACK_PEAK 0.988525
INDEX 01 00:00:00
FILE “05. The Word.flac” WAVE
TRACK 05 AUDIO
TITLE “The Word”
ISRC US35U1418105
REM REPLAYGAIN_TRACK_GAIN -7.53 dB
REM REPLAYGAIN_TRACK_PEAK 0.988525
INDEX 01 00:00:00
FILE “06. Badmouth.flac” WAVE
TRACK 06 AUDIO
TITLE “Badmouth”
ISRC US35U1418106
REM REPLAYGAIN_TRACK_GAIN -6.97 dB
REM REPLAYGAIN_TRACK_PEAK 0.988525
INDEX 01 00:00:00
FILE “07. Break-In.flac” WAVE
TRACK 07 AUDIO
TITLE “Break-In”
ISRC US35U1418107
REM REPLAYGAIN_TRACK_GAIN -7.71 dB
REM REPLAYGAIN_TRACK_PEAK 0.988525
INDEX 01 00:00:00
FILE “08. Turn Off Your Guns.flac” WAVE
TRACK 08 AUDIO
TITLE “Turn Off Your Guns”
ISRC US35U1418108
REM REPLAYGAIN_TRACK_GAIN -7.14 dB
REM REPLAYGAIN_TRACK_PEAK 0.988525
INDEX 01 00:00:00
FILE “09. And The Same.flac” WAVE
TRACK 09 AUDIO
TITLE “And The Same”
ISRC US35U1418109
REM REPLAYGAIN_TRACK_GAIN -7.68 dB
REM REPLAYGAIN_TRACK_PEAK 0.988525
INDEX 01 00:00:00
FILE “10. In Defense Of Humans.flac” WAVE
TRACK 10 AUDIO
TITLE “In Defense Of Humans”
ISRC US35U1418110
REM REPLAYGAIN_TRACK_GAIN -7.86 dB
REM REPLAYGAIN_TRACK_PEAK 0.988525
INDEX 01 00:00:00
FILE “11. Joe #1.flac” WAVE
TRACK 11 AUDIO
TITLE “Joe #1”
ISRC US35U1418111
REM REPLAYGAIN_TRACK_GAIN -6.41 dB
REM REPLAYGAIN_TRACK_PEAK 0.988525
INDEX 01 00:00:00


Leave a Reply

Your email address will not be published. Required fields are marked *

Enter the text from the image below
 

This site uses Akismet to reduce spam. Learn how your comment data is processed.