Fugazi – 13 Songs (Remastered)




[Total: 0    Average: 0/5]

Artist: Fugazi
Year: 1989/2013
Genre: Hardcore
Notes: Discogs
Add. Notes: Remastered
Cover incl.: Yes
Encoder: FLAC
Bitrate: ~900 kBit/s (44.1 kHz/16 Bit/s)
Log & Cue incl.: Yes
Size: 277,83 MB
Password: “slam” (without ” “)


All Downloads/Hosters are compatible

Download 1
Share-online.biz
KatFile.com
Rapidgator.net
NitroFlare.com
Download 2
Share-online.biz
KatFile.com
Rapidgator.net
NitroFlare.com

Tracklist:

1  - Waiting Room  - 2:54
2  - Bulldog Front  - 2:53
3  - Bad Mouth  - 2:36
4  - Burning  - 2:39
5  - Give Me The Cure  - 2:59
6  - Suggestion  - 4:44
7  - Glue Man  - 4:21
8  - Margin Walker  - 2:30
9  - And The Same  - 3:27
10  - Burning Too  - 2:41
11  - Provisional  - 2:17
12  - Lockdown  - 2:10
13  - Promises  - 4:03

EAC-Log, CUE-Sheed & NFO:

Click to open spoiler
Exact Audio Copy V0.99 prebeta 4 from 23. January 2008

EAC extraction logfile from 24. February 2009, 10:30

Fugazi / 13 Songs

Used drive : _NEC DVD_RW ND-3540A Adapter: 5 ID: 0

Read mode : Secure
Utilize accurate stream : Yes
Defeat audio cache : Yes
Make use of C2 pointers : No

Read offset correction : 48
Overread into Lead-In and Lead-Out : No
Fill up missing offset samples with silence : Yes
Delete leading and trailing silent blocks : No
Null samples used in CRC calculations : Yes
Used interface : Installed external ASPI interface
Gap handling : Appended to previous track

Used output format : User Defined Encoder
Selected bitrate : 768 kBit/s
Quality : High
Add ID3 tag : No
Command line compressor : C:\Program Files\Exact Audio Copy2\FLAC\FLAC.EXE
Additional command line options : -V -8 -T “artist=%a” -T “title=%t” -T “album=%g” -T “date=%y” -T “tracknumber=%n” -T “genre=%m” %s

TOC of the extracted CD

Track | Start | Length | Start sector | End sector
———————————————————
1 | 0:00.00 | 2:53.20 | 0 | 12994
2 | 2:53.20 | 2:53.32 | 12995 | 26001
3 | 5:46.52 | 2:35.47 | 26002 | 37673
4 | 8:22.24 | 2:39.50 | 37674 | 49648
5 | 11:01.74 | 2:58.21 | 49649 | 63019
6 | 14:00.20 | 4:44.11 | 63020 | 84330
7 | 18:44.31 | 4:23.59 | 84331 | 104114
8 | 23:08.15 | 2:30.35 | 104115 | 115399
9 | 25:38.50 | 3:27.07 | 115400 | 130931
10 | 29:05.57 | 2:50.66 | 130932 | 143747
11 | 31:56.48 | 2:17.54 | 143748 | 154076
12 | 34:14.27 | 2:10.42 | 154077 | 163868
13 | 36:24.69 | 4:02.09 | 163869 | 182027

Track 1

Filename G:\Fugazi – 1989 – 13 Songs\01 – Waiting Room.wav

Pre-gap length 0:00:02.00

Peak level 100.0 %
Track quality 100.0 %
Test CRC E77DDCB3
Copy CRC E77DDCB3
Accurately ripped (confidence 20) [499A1F7E]
Copy OK

Track 2

Filename G:\Fugazi – 1989 – 13 Songs\02 – Bulldog Front.wav

Peak level 100.0 %
Track quality 100.0 %
Test CRC 27BE7941
Copy CRC 27BE7941
Accurately ripped (confidence 20) [51FEC3D7]
Copy OK

Track 3

Filename G:\Fugazi – 1989 – 13 Songs\03 – Bad Mouth.wav

Peak level 100.0 %
Track quality 100.0 %
Test CRC 9AC899BD
Copy CRC 9AC899BD
Accurately ripped (confidence 20) [28FF85BC]
Copy OK

Track 4

Filename G:\Fugazi – 1989 – 13 Songs\04 – Burning.wav

Peak level 100.0 %
Track quality 100.0 %
Test CRC 31E7770B
Copy CRC 31E7770B
Accurately ripped (confidence 18) [5E8EDEF7]
Copy OK

Track 5

Filename G:\Fugazi – 1989 – 13 Songs\05 – Give Me The Cure.wav

Peak level 100.0 %
Track quality 100.0 %
Test CRC 23DA6937
Copy CRC 23DA6937
Accurately ripped (confidence 19) [DE392C36]
Copy OK

Track 6

Filename G:\Fugazi – 1989 – 13 Songs\06 – Suggestion.wav

Peak level 100.0 %
Track quality 100.0 %
Test CRC A4285156
Copy CRC A4285156
Accurately ripped (confidence 19) [32EE23D9]
Copy OK

Track 7

Filename G:\Fugazi – 1989 – 13 Songs\07 – Glue Man.wav

Peak level 100.0 %
Track quality 100.0 %
Test CRC 098F4ACE
Copy CRC 098F4ACE
Accurately ripped (confidence 20) [B92C8F16]
Copy OK

Track 8

Filename G:\Fugazi – 1989 – 13 Songs\08 – Margin Walker.wav

Pre-gap length 0:00:02.80

Peak level 100.0 %
Track quality 100.0 %
Test CRC CBB91096
Copy CRC CBB91096
Accurately ripped (confidence 20) [DE1A945B]
Copy OK

Track 9

Filename G:\Fugazi – 1989 – 13 Songs\09 – And The Same.wav

Peak level 100.0 %
Track quality 100.0 %
Test CRC DDC4DA6C
Copy CRC DDC4DA6C
Accurately ripped (confidence 20) [39D8E6A4]
Copy OK

Track 10

Filename G:\Fugazi – 1989 – 13 Songs\10 – Burning Too.wav

Peak level 100.0 %
Track quality 100.0 %
Test CRC 5050CE70
Copy CRC 5050CE70
Accurately ripped (confidence 20) [4C10ED43]
Copy OK

Track 11

Filename G:\Fugazi – 1989 – 13 Songs\11 – Provisional.wav

Peak level 100.0 %
Track quality 100.0 %
Test CRC 4E218DBC
Copy CRC 4E218DBC
Accurately ripped (confidence 20) [1E61F229]
Copy OK

Track 12

Filename G:\Fugazi – 1989 – 13 Songs\12 – Lockdown.wav

Peak level 100.0 %
Track quality 100.0 %
Test CRC B55758D9
Copy CRC B55758D9
Accurately ripped (confidence 20) [D876D24A]
Copy OK

Track 13

Filename G:\Fugazi – 1989 – 13 Songs\13 – Promises.wav

Peak level 100.0 %
Track quality 100.0 %
Test CRC 2D346F61
Copy CRC 2D346F61
Accurately ripped (confidence 19) [0BA01105]
Copy OK

All tracks accurately ripped

No errors occurred

End of status report

REM DATE 2003
REM DISCID A9097B0D
REM COMMENT “ExactAudioCopy v0.99pb4”
PERFORMER “Fugazi”
TITLE “13 Songs”
FILE “01. Waiting Room.wav” WAVE
TRACK 01 AUDIO
TITLE “Waiting Room”
PERFORMER “Fugazi”
INDEX 01 00:00:00
FILE “02. Bulldog Front.wav” WAVE
TRACK 02 AUDIO
TITLE “Bulldog Front”
PERFORMER “Fugazi”
INDEX 01 00:00:00
FILE “03. Bad Mouth.wav” WAVE
TRACK 03 AUDIO
TITLE “Bad Mouth”
PERFORMER “Fugazi”
INDEX 01 00:00:00
FILE “04. Burning.wav” WAVE
TRACK 04 AUDIO
TITLE “Burning”
PERFORMER “Fugazi”
INDEX 01 00:00:00
FILE “05. Give Me The Cure.wav” WAVE
TRACK 05 AUDIO
TITLE “Give Me The Cure”
PERFORMER “Fugazi”
INDEX 01 00:00:00
FILE “06. Suggestion.wav” WAVE
TRACK 06 AUDIO
TITLE “Suggestion”
PERFORMER “Fugazi”
INDEX 01 00:00:00
FILE “07. Glue Man.wav” WAVE
TRACK 07 AUDIO
TITLE “Glue Man”
PERFORMER “Fugazi”
INDEX 01 00:00:00
TRACK 08 AUDIO
TITLE “Margin Walker”
PERFORMER “Fugazi”
INDEX 00 04:20:74
FILE “08. Margin Walker.wav” WAVE
INDEX 01 00:00:00
FILE “09. And The Same.wav” WAVE
TRACK 09 AUDIO
TITLE “And The Same”
PERFORMER “Fugazi”
INDEX 01 00:00:00
FILE “10. Burning Too.wav” WAVE
TRACK 10 AUDIO
TITLE “Burning Too”
PERFORMER “Fugazi”
INDEX 01 00:00:00
FILE “11. Provisional.wav” WAVE
TRACK 11 AUDIO
TITLE “Provisional”
PERFORMER “Fugazi”
INDEX 01 00:00:00
FILE “12. Lockdown.wav” WAVE
TRACK 12 AUDIO
TITLE “Lockdown”
PERFORMER “Fugazi”
INDEX 01 00:00:00
FILE “13. Promises.wav” WAVE
TRACK 13 AUDIO
TITLE “Promises”
PERFORMER “Fugazi”
INDEX 01 00:00:00


Spread the Download

Leave a Reply

Your email address will not be published. Required fields are marked *

Enter the text from the image below
 

This site uses Akismet to reduce spam. Learn how your comment data is processed.