Franz Ferdinand – You Could Have It So Much Better




No Cover available


Artist: Franz Ferdinand
Year: 2005
Genre: Rock
Notes: Discogs
Add. Notes:
Watch Songs on: YouTube
Cover incl.: Yes
Encoder: FLAC
Bitrate: ~1000 kBit/s (44.1 kHz/16 Bit/s)
Log & Cue incl.: Yes/Yes
Size: 292,3 MB
Password: “slam” (without ” “)


All Downloads/Hosters are compatible

Download 1
KatFile.com
Turbobit.net
Rapidgator.net
FileFactory.com
Download 2
KatFile.com
Turbobit.net
Rapidgator.net
FileFactory.com

Tracklist:

1 The Fallen 3:42
2 Do You Want To 3:35
3 This Boy 2:21
4 Walk Away 3:36
5 Evil And A Heathen 2:05
6 You're The Reason I'm Leaving 2:47
7 Eleanor Put Your Boots On 2:49
8 Well That Was Easy 3:02
9 What You Meant 3:24
10 I'm Your Villain 4:03
11 You Could Have It So Much Better 2:41
12 Fade Together 3:03
13 Outsiders 4:02

EAC-Log, CUE-Sheed & NFO:

Click to open spoiler
Exact Audio Copy V0.99 prebeta 3 from 28. July 2007

EAC extraction logfile from 22. March 2008, 14:10

Franz Ferdinand / You Could Have It So Much Better

Used drive : HL-DT-STDVDRAM GSA-T10N Adapter: 2 ID: 0

Read mode : Secure
Utilize accurate stream : Yes
Defeat audio cache : Yes
Make use of C2 pointers : No

Read offset correction : 667
Overread into Lead-In and Lead-Out : No
Fill up missing offset samples with silence : Yes
Delete leading and trailing silent blocks : No
Null samples used in CRC calculations : Yes
Used interface : Installed external ASPI interface
Gap handling : Appended to previous track

Used output format : User Defined Encoder
Selected bitrate : 192 kBit/s
Quality : High
Add ID3 tag : No
Command line compressor : C:\Program Files\Exact Audio Copy\flac.exe
Additional command line options : -8 -A tukey(0.25) -A gauss(0.1875) -b 4096 -V -T “artist=%a” -T “title=%t” -T “album=%g” -T “date=%y” -T “tracknumber=%n” -T “genre=%m” %s –sector-align

TOC of the extracted CD

Track | Start | Length | Start sector | End sector
———————————————————
1 | 0:00.00 | 3:42.30 | 0 | 16679
2 | 3:42.30 | 3:35.00 | 16680 | 32804
3 | 7:17.30 | 2:21.65 | 32805 | 43444
4 | 9:39.20 | 3:36.25 | 43445 | 59669
5 | 13:15.45 | 2:05.50 | 59670 | 69094
6 | 15:21.20 | 2:47.10 | 69095 | 81629
7 | 18:08.30 | 2:49.70 | 81630 | 94374
8 | 20:58.25 | 3:02.37 | 94375 | 108061
9 | 24:00.62 | 3:24.53 | 108062 | 123414
10 | 27:25.40 | 4:03.52 | 123415 | 141691
11 | 31:29.17 | 2:41.38 | 141692 | 153804
12 | 34:10.55 | 3:03.27 | 153805 | 167556
13 | 37:14.07 | 4:02.53 | 167557 | 185759

Track 1

Filename E:\Franz Ferdinand – You Could Have It So Much Better (2005)\01 The Fallen.wav

Pre-gap length 0:00:02.00

Peak level 99.9 %
Track quality 100.0 %
Test CRC 7314AAAD
Copy CRC 7314AAAD
Copy OK

Track 2

Filename E:\Franz Ferdinand – You Could Have It So Much Better (2005)\02 Do You Want To.wav

Peak level 100.0 %
Track quality 100.0 %
Test CRC 95BC4E63
Copy CRC 95BC4E63
Copy OK

Track 3

Filename E:\Franz Ferdinand – You Could Have It So Much Better (2005)\03 This Boy.wav

Peak level 100.0 %
Track quality 100.0 %
Test CRC CEA75C37
Copy CRC CEA75C37
Copy OK

Track 4

Filename E:\Franz Ferdinand – You Could Have It So Much Better (2005)\04 Walk Away.wav

Peak level 99.9 %
Track quality 100.0 %
Test CRC EBF402DF
Copy CRC EBF402DF
Copy OK

Track 5

Filename E:\Franz Ferdinand – You Could Have It So Much Better (2005)\05 Evil and a Heathen.wav

Peak level 99.9 %
Track quality 100.0 %
Test CRC 515F39E2
Copy CRC 515F39E2
Copy OK

Track 6

Filename E:\Franz Ferdinand – You Could Have It So Much Better (2005)\06 You’re the Reason I’m Leaving.wav

Peak level 99.9 %
Track quality 100.0 %
Test CRC 39200E7E
Copy CRC 39200E7E
Copy OK

Track 7

Filename E:\Franz Ferdinand – You Could Have It So Much Better (2005)\07 Eleanor Put Your Boots On.wav

Peak level 99.9 %
Track quality 100.0 %
Test CRC F5732308
Copy CRC F5732308
Copy OK

Track 8

Filename E:\Franz Ferdinand – You Could Have It So Much Better (2005)\08 Well That Was Easy.wav

Peak level 100.0 %
Track quality 100.0 %
Test CRC A02D846C
Copy CRC A02D846C
Copy OK

Track 9

Filename E:\Franz Ferdinand – You Could Have It So Much Better (2005)\09 What You Meant.wav

Peak level 99.9 %
Track quality 100.0 %
Test CRC 3795042B
Copy CRC 3795042B
Copy OK

Track 10

Filename E:\Franz Ferdinand – You Could Have It So Much Better (2005)\10 I’m Your Villain.wav

Peak level 100.0 %
Track quality 100.0 %
Test CRC 784796BB
Copy CRC 784796BB
Copy OK

Track 11

Filename E:\Franz Ferdinand – You Could Have It So Much Better (2005)\11 You Could Have It So Much Better.wav

Peak level 99.9 %
Track quality 100.0 %
Test CRC 43C3CDD8
Copy CRC 43C3CDD8
Copy OK

Track 12

Filename E:\Franz Ferdinand – You Could Have It So Much Better (2005)\12 Fade Together.wav

Peak level 99.9 %
Track quality 100.0 %
Test CRC DCDAC6EB
Copy CRC DCDAC6EB
Copy OK

Track 13

Filename E:\Franz Ferdinand – You Could Have It So Much Better (2005)\13 Outsiders.wav

Peak level 99.9 %
Track quality 100.0 %
Test CRC F14AE293
Copy CRC F14AE293
Copy OK

No errors occurred

End of status report

REM GENRE Alternative
REM DATE 2005
REM DISCID A609AC0D
REM COMMENT “ExactAudioCopy v0.99pb3”
PERFORMER “Franz Ferdinand”
TITLE “You Could Have It So Much Better”
FILE “01 – The Fallen.wav” WAVE
TRACK 01 AUDIO
TITLE “The Fallen”
PERFORMER “Franz Ferdinand”
INDEX 01 00:00:00
FILE “02 – Do You Want To.wav” WAVE
TRACK 02 AUDIO
TITLE “Do You Want To”
PERFORMER “Franz Ferdinand”
INDEX 01 00:00:00
FILE “03 – This Boy.wav” WAVE
TRACK 03 AUDIO
TITLE “This Boy”
PERFORMER “Franz Ferdinand”
INDEX 01 00:00:00
FILE “04 – Walk Away.wav” WAVE
TRACK 04 AUDIO
TITLE “Walk Away”
PERFORMER “Franz Ferdinand”
INDEX 01 00:00:00
FILE “05 – Evil and a Heathen.wav” WAVE
TRACK 05 AUDIO
TITLE “Evil and a Heathen”
PERFORMER “Franz Ferdinand”
INDEX 01 00:00:00
FILE “06 – You’re the Reason I’m Leaving.wav” WAVE
TRACK 06 AUDIO
TITLE “You’re the Reason I’m Leaving”
PERFORMER “Franz Ferdinand”
INDEX 01 00:00:00
FILE “07 – Eleanor Put Your Boots On.wav” WAVE
TRACK 07 AUDIO
TITLE “Eleanor Put Your Boots On”
PERFORMER “Franz Ferdinand”
INDEX 01 00:00:00
FILE “08 – Well That Was Easy.wav” WAVE
TRACK 08 AUDIO
TITLE “Well That Was Easy”
PERFORMER “Franz Ferdinand”
INDEX 01 00:00:00
FILE “09 – What You Meant.wav” WAVE
TRACK 09 AUDIO
TITLE “What You Meant”
PERFORMER “Franz Ferdinand”
INDEX 01 00:00:00
FILE “10 – I’m Your Villain.wav” WAVE
TRACK 10 AUDIO
TITLE “I’m Your Villain”
PERFORMER “Franz Ferdinand”
INDEX 01 00:00:00
FILE “11 – You Could Have It So Much Better.wav” WAVE
TRACK 11 AUDIO
TITLE “You Could Have It So Much Better”
PERFORMER “Franz Ferdinand”
INDEX 01 00:00:00
FILE “12 – Fade Together.wav” WAVE
TRACK 12 AUDIO
TITLE “Fade Together”
PERFORMER “Franz Ferdinand”
INDEX 01 00:00:00
FILE “13 – Outsiders.wav” WAVE
TRACK 13 AUDIO
TITLE “Outsiders”
PERFORMER “Franz Ferdinand”
INDEX 01 00:00:00


Leave a Reply

Your email address will not be published. Required fields are marked *

Enter the text from the image below
 

This site uses Akismet to reduce spam. Learn how your comment data is processed.