Franz Ferdinand – Tonight: Franz Ferdinand (Limited Edition)




No Cover available

Artist: Franz Ferdinand
Year: 2009
Genre: Rock
Notes: Discogs
Add. Notes: Limited Edition
Watch Songs on: YouTube
Cover incl.: Yes
Encoder: FLAC
Bitrate: ~900 kBit/s (44.1 kHz/16 Bit/s)
Log & Cue incl.: Yes/Yes
Size: 524,5 MB
Password: “slam” (without ” “)


All Downloads/Hosters are compatible

Download 1
KatFile.com
Turbobit.net
Rapidgator.net
FileFactory.com
Download 2
KatFile.com
Turbobit.net
Rapidgator.net
FileFactory.com

Tracklist:

Tonight:
1-1 Ulysses 3:11
1-2 Turn It On 2:21
1-3 No You Girls 3:42
1-4 Send Him Away 2:59
1-5 Twilight Omens 2:30
1-6 Bite Hard 3:26
1-7 What She Came For 3:34
1-8 Live Alone 3:29
1-9 Can't Stop Feeling 3:03
1-10 Lucid Dreams 7:56
1-11 Dream Again 3:18
1-12 Katherine Kiss Me 2:56

Blood:
2-1 Feel The Pressure 3:28
2-2 Die On The Floor 6:35
2-3 The Vaguest Of Feeling 3:50
2-4 If I Can't Have You Then Nobody Can 3:54
2-5 Katherine Hit Me 3:43
2-6 Backwards On My Face 3:48
2-7 Feeling Kind Of Anxious 6:31
2-8 Feel The Envy 3:32

EAC-Log, CUE-Sheed & NFO:

Click to open spoiler
Exact Audio Copy V0.99 prebeta 4 from 23. January 2008

EAC extraction logfile from 27. January 2009, 21:14

Franz Ferdinand / Blood

Used drive : PLEXTOR DVD-ROM PX-130A Adapter: 1 ID: 0

Read mode : Secure
Utilize accurate stream : Yes
Defeat audio cache : Yes
Make use of C2 pointers : No

Read offset correction : 738
Overread into Lead-In and Lead-Out : No
Fill up missing offset samples with silence : Yes
Delete leading and trailing silent blocks : No
Null samples used in CRC calculations : Yes
Used interface : Native Win32 interface for Win NT & 2000
Gap handling : Appended to previous track

Used output format : User Defined Encoder
Selected bitrate : 768 kBit/s
Quality : High
Add ID3 tag : No
Command line compressor : C:\Program Files (x86)\Exact Audio Copy\FLAC\FLAC.EXE
Additional command line options : -V -8 -T “artist=%a” -T “title=%t” -T “album=%g” -T “date=%y” -T “tracknumber=%n” -T “genre=%m” %s

TOC of the extracted CD

Track | Start | Length | Start sector | End sector
———————————————————
1 | 0:00.00 | 3:27.61 | 0 | 15585
2 | 3:27.61 | 6:34.39 | 15586 | 45174
3 | 10:02.25 | 3:49.58 | 45175 | 62407
4 | 13:52.08 | 3:53.58 | 62408 | 79940
5 | 17:45.66 | 3:43.15 | 79941 | 96680
6 | 21:29.06 | 3:47.61 | 96681 | 113766
7 | 25:16.67 | 6:31.19 | 113767 | 143110
8 | 31:48.11 | 3:32.04 | 143111 | 159014

Track 1

Filename Y:\waffles\Franz Ferdinand-2009-Blood\01-Feel The Pressure.wav

Pre-gap length 0:00:02.00

Peak level 100.0 %
Track quality 100.0 %
Test CRC 74089F63
Copy CRC 74089F63
Track not present in AccurateRip database
Copy OK

Track 2

Filename Y:\waffles\Franz Ferdinand-2009-Blood\02-Die On The Floor.wav

Pre-gap length 0:00:02.16

Peak level 100.0 %
Track quality 100.0 %
Test CRC D75038C7
Copy CRC D75038C7
Track not present in AccurateRip database
Copy OK

Track 3

Filename Y:\waffles\Franz Ferdinand-2009-Blood\03-The Vaguest Of Feeling.wav

Pre-gap length 0:00:01.90

Peak level 100.0 %
Track quality 99.9 %
Test CRC 49D9272E
Copy CRC 49D9272E
Track not present in AccurateRip database
Copy OK

Track 4

Filename Y:\waffles\Franz Ferdinand-2009-Blood\04-If I Can’t Have You Then Nobody Can.wav

Pre-gap length 0:00:01.72

Peak level 100.0 %
Track quality 99.9 %
Test CRC 877BA377
Copy CRC 877BA377
Track not present in AccurateRip database
Copy OK

Track 5

Filename Y:\waffles\Franz Ferdinand-2009-Blood\05-Katherine Hit Me.wav

Pre-gap length 0:00:02.12

Peak level 100.0 %
Track quality 100.0 %
Test CRC E17CBA2B
Copy CRC E17CBA2B
Track not present in AccurateRip database
Copy OK

Track 6

Filename Y:\waffles\Franz Ferdinand-2009-Blood\06-Backwards On My Face.wav

Pre-gap length 0:00:02.05

Peak level 100.0 %
Track quality 99.9 %
Test CRC 486E9EF3
Copy CRC 486E9EF3
Track not present in AccurateRip database
Copy OK

Track 7

Filename Y:\waffles\Franz Ferdinand-2009-Blood\07-Feeling Kind Of Anxious.wav

Pre-gap length 0:00:02.32

Peak level 100.0 %
Track quality 100.0 %
Test CRC 6FF312A0
Copy CRC 6FF312A0
Track not present in AccurateRip database
Copy OK

Track 8

Filename Y:\waffles\Franz Ferdinand-2009-Blood\08-Feel The Envy.wav

Pre-gap length 0:00:02.52

Peak level 100.0 %
Track quality 100.0 %
Test CRC 5B43660A
Copy CRC 5B43660A
Track not present in AccurateRip database
Copy OK

None of the tracks are present in the AccurateRip database

No errors occurred

End of status report

Exact Audio Copy V0.99 prebeta 4 from 23. January 2008

EAC extraction logfile from 27. January 2009, 20:27

Franz Ferdinand / Tonight

Used drive : PLEXTOR DVD-ROM PX-130A Adapter: 1 ID: 0

Read mode : Secure
Utilize accurate stream : Yes
Defeat audio cache : Yes
Make use of C2 pointers : No

Read offset correction : 738
Overread into Lead-In and Lead-Out : No
Fill up missing offset samples with silence : Yes
Delete leading and trailing silent blocks : No
Null samples used in CRC calculations : Yes
Used interface : Native Win32 interface for Win NT & 2000
Gap handling : Appended to previous track

Used output format : User Defined Encoder
Selected bitrate : 768 kBit/s
Quality : High
Add ID3 tag : No
Command line compressor : C:\Program Files (x86)\Exact Audio Copy\FLAC\FLAC.EXE
Additional command line options : -V -8 -T “artist=%a” -T “title=%t” -T “album=%g” -T “date=%y” -T “tracknumber=%n” -T “genre=%m” %s

TOC of the extracted CD

Track | Start | Length | Start sector | End sector
———————————————————
1 | 0:00.00 | 3:11.12 | 0 | 14336
2 | 3:11.12 | 2:20.60 | 14337 | 24896
3 | 5:31.72 | 3:41.59 | 24897 | 41530
4 | 9:13.56 | 2:59.35 | 41531 | 54990
5 | 12:13.16 | 2:29.49 | 54991 | 66214
6 | 14:42.65 | 3:26.31 | 66215 | 81695
7 | 18:09.21 | 3:33.41 | 81696 | 97711
8 | 21:42.62 | 3:29.02 | 97712 | 113388
9 | 25:11.64 | 3:02.55 | 113389 | 127093
10 | 28:14.44 | 7:56.24 | 127094 | 162817
11 | 36:10.68 | 3:18.25 | 162818 | 177692
12 | 39:29.18 | 2:55.60 | 177693 | 190877

Track 1

Filename Y:\waffles\Franz Ferdinand-2009-Tonight\01-Ulysses.wav

Pre-gap length 0:00:02.00

Peak level 100.0 %
Track quality 100.0 %
Test CRC 176DA2E8
Copy CRC 176DA2E8
Track not present in AccurateRip database
Copy OK

Track 2

Filename Y:\waffles\Franz Ferdinand-2009-Tonight\02-Turn It On.wav

Pre-gap length 0:00:01.52

Peak level 100.0 %
Track quality 99.9 %
Test CRC 2A0739AB
Copy CRC 2A0739AB
Track not present in AccurateRip database
Copy OK

Track 3

Filename Y:\waffles\Franz Ferdinand-2009-Tonight\03-No You Girls.wav

Pre-gap length 0:00:00.69

Peak level 100.0 %
Track quality 100.0 %
Test CRC E582AE04
Copy CRC E582AE04
Track not present in AccurateRip database
Copy OK

Track 4

Filename Y:\waffles\Franz Ferdinand-2009-Tonight\04-Send Him Away.wav

Pre-gap length 0:00:01.33

Peak level 100.0 %
Track quality 100.0 %
Test CRC 827911AC
Copy CRC 827911AC
Track not present in AccurateRip database
Copy OK

Track 5

Filename Y:\waffles\Franz Ferdinand-2009-Tonight\05-Twilight Omens.wav

Pre-gap length 0:00:00.18

Peak level 100.0 %
Track quality 100.0 %
Test CRC 5A99B8F3
Copy CRC 5A99B8F3
Track not present in AccurateRip database
Copy OK

Track 6

Filename Y:\waffles\Franz Ferdinand-2009-Tonight\06-Bite Hard.wav

Pre-gap length 0:00:00.96

Peak level 100.0 %
Track quality 100.0 %
Test CRC CFFABA9A
Copy CRC CFFABA9A
Track not present in AccurateRip database
Copy OK

Track 7

Filename Y:\waffles\Franz Ferdinand-2009-Tonight\07-What She Came For.wav

Pre-gap length 0:00:01.89

Peak level 100.0 %
Track quality 100.0 %
Test CRC D9AB9EC6
Copy CRC D9AB9EC6
Track not present in AccurateRip database
Copy OK

Track 8

Filename Y:\waffles\Franz Ferdinand-2009-Tonight\08-Live Alone.wav

Pre-gap length 0:00:00.88

Peak level 100.0 %
Track quality 100.0 %
Test CRC C7A38E93
Copy CRC C7A38E93
Track not present in AccurateRip database
Copy OK

Track 9

Filename Y:\waffles\Franz Ferdinand-2009-Tonight\09-Can’t Stop Feeling.wav

Peak level 100.0 %
Track quality 100.0 %
Test CRC 2CB832B9
Copy CRC 2CB832B9
Track not present in AccurateRip database
Copy OK

Track 10

Filename Y:\waffles\Franz Ferdinand-2009-Tonight\10-Lucid Dreams.wav

Pre-gap length 0:00:00.82

Peak level 100.0 %
Track quality 100.0 %
Test CRC D5C10ECF
Copy CRC D5C10ECF
Track not present in AccurateRip database
Copy OK

Track 11

Filename Y:\waffles\Franz Ferdinand-2009-Tonight\11-Dream Again.wav

Pre-gap length 0:00:01.20

Peak level 100.0 %
Track quality 100.0 %
Test CRC 2F5CF555
Copy CRC 2F5CF555
Track not present in AccurateRip database
Copy OK

Track 12

Filename Y:\waffles\Franz Ferdinand-2009-Tonight\12-Katherine Kiss Me.wav

Pre-gap length 0:00:01.04

Peak level 90.4 %
Track quality 100.0 %
Test CRC 8DAB1767
Copy CRC 8DAB1767
Track not present in AccurateRip database
Copy OK

None of the tracks are present in the AccurateRip database

No errors occurred

End of status report

REM GENRE Indie
REM DATE 2009
REM DISCID 5B084808
REM COMMENT “ExactAudioCopy v0.99pb4”
PERFORMER “Franz Ferdinand”
TITLE “Blood”
FILE “01 – Feel The Pressure.wav” WAVE
TRACK 01 AUDIO
TITLE “Feel The Pressure”
PERFORMER “Franz Ferdinand”
INDEX 01 00:00:00
TRACK 02 AUDIO
TITLE “Die On The Floor”
PERFORMER “Franz Ferdinand”
INDEX 00 03:25:49
FILE “02 – Die On The Floor.wav” WAVE
INDEX 01 00:00:00
TRACK 03 AUDIO
TITLE “The Vaguest Of Feeling”
PERFORMER “Franz Ferdinand”
INDEX 00 06:32:46
FILE “03 – The Vaguest Of Feeling.wav” WAVE
INDEX 01 00:00:00
TRACK 04 AUDIO
TITLE “If I Can’t Have You Then Nobody Can”
PERFORMER “Franz Ferdinand”
INDEX 00 03:48:04
FILE “04 – If I Can’t Have You Then Nobody Can.wav” WAVE
INDEX 01 00:00:00
TRACK 05 AUDIO
TITLE “Katherine Hit Me”
PERFORMER “Franz Ferdinand”
INDEX 00 03:51:49
FILE “05 – Katherine Hit Me.wav” WAVE
INDEX 01 00:00:00
TRACK 06 AUDIO
TITLE “Backwards On My Face”
PERFORMER “Franz Ferdinand”
INDEX 00 03:41:11
FILE “06 – Backwards On My Face.wav” WAVE
INDEX 01 00:00:00
TRACK 07 AUDIO
TITLE “Feeling Kind Of Anxious”
PERFORMER “Franz Ferdinand”
INDEX 00 03:45:37
FILE “07 – Feeling Kind Of Anxious.wav” WAVE
INDEX 01 00:00:00
TRACK 08 AUDIO
TITLE “Feel The Envy”
PERFORMER “Franz Ferdinand”
INDEX 00 06:28:55
FILE “08 – Feel The Envy.wav” WAVE
INDEX 01 00:00:00

REM GENRE Britpop
REM DATE 2009
REM DISCID 9609F10C
REM COMMENT “ExactAudioCopy v0.99pb4”
PERFORMER “Franz Ferdinand”
TITLE “Tonight”
FILE “01 – Ulysses.wav” WAVE
TRACK 01 AUDIO
TITLE “Ulysses”
PERFORMER “Franz Ferdinand”
INDEX 01 00:00:00
TRACK 02 AUDIO
TITLE “Turn It On”
PERFORMER “Franz Ferdinand”
INDEX 00 03:09:48
FILE “02 – Turn It On.wav” WAVE
INDEX 01 00:00:00
TRACK 03 AUDIO
TITLE “No You Girls”
PERFORMER “Franz Ferdinand”
INDEX 00 02:20:08
FILE “03 – No You Girls.wav” WAVE
INDEX 01 00:00:00
TRACK 04 AUDIO
TITLE “Send Him Away”
PERFORMER “Franz Ferdinand”
INDEX 00 03:40:34
FILE “04 – Send Him Away.wav” WAVE
INDEX 01 00:00:00
TRACK 05 AUDIO
TITLE “Twilight Omens”
PERFORMER “Franz Ferdinand”
INDEX 00 02:59:21
FILE “05 – Twilight Omens.wav” WAVE
INDEX 01 00:00:00
TRACK 06 AUDIO
TITLE “Bite Hard”
PERFORMER “Franz Ferdinand”
INDEX 00 02:28:52
FILE “06 – Bite Hard.wav” WAVE
INDEX 01 00:00:00
TRACK 07 AUDIO
TITLE “What She Came For”
PERFORMER “Franz Ferdinand”
INDEX 00 03:24:39
FILE “07 – What She Came For.wav” WAVE
INDEX 01 00:00:00
TRACK 08 AUDIO
TITLE “Live Alone”
PERFORMER “Franz Ferdinand”
INDEX 00 03:32:50
FILE “08 – Live Alone.wav” WAVE
INDEX 01 00:00:00
FILE “09 – Can’t Stop Feeling.wav” WAVE
TRACK 09 AUDIO
TITLE “Can’t Stop Feeling”
PERFORMER “Franz Ferdinand”
INDEX 01 00:00:00
TRACK 10 AUDIO
TITLE “Lucid Dreams”
PERFORMER “Franz Ferdinand”
INDEX 00 03:01:68
FILE “10 – Lucid Dreams.wav” WAVE
INDEX 01 00:00:00
TRACK 11 AUDIO
TITLE “Dream Again”
PERFORMER “Franz Ferdinand”
INDEX 00 07:55:09
FILE “11 – Dream Again.wav” WAVE
INDEX 01 00:00:00
TRACK 12 AUDIO
TITLE “Katherine Kiss Me”
PERFORMER “Franz Ferdinand”
INDEX 00 03:17:22
FILE “12 – Katherine Kiss Me.wav” WAVE
INDEX 01 00:00:00


Leave a Reply

Your email address will not be published. Required fields are marked *

Enter the text from the image below
 

This site uses Akismet to reduce spam. Learn how your comment data is processed.