Franz Ferdinand – Right Thoughts, Right Words, Right Action (Limited Deluxe Edition)




No Cover available

Artist: Franz Ferdinand
Year: 2013
Genre: Rock
Notes: Discogs
Add. Notes: Limited Deluxe Edition
Watch Songs on: YouTube
Cover incl.: No
Encoder: FLAC
Bitrate: ~1000 kBit/s (44.1 kHz/16 Bit/s)
Log & Cue incl.: Yes/Yes
Size: 589 MB
Password: “slam” (without ” “)


All Downloads/Hosters are compatible

Download 1
KatFile.com
Turbobit.net
Rapidgator.net
FileFactory.com
Download 2
KatFile.com
Turbobit.net
Rapidgator.net
FileFactory.com

Tracklist:

CD 1: Right Thoughts Right Words Right Action
1 Right Action 3:02
2 Evil Eye 2:47
3 Love Illumination 3:44
4 Stand On The Horizon 4:23
5 Fresh Strawberries 3:22
6 Bullet 2:43
7 Treason! Animals. 4:08
8 The Universe Expanded 4:35
9 Brief Encounters 3:09
10 Goodbye Lovers & Friends 3:16

CD 2: Right Notes Right Words Wrong Order
1 Bullet 2:42
2 No You Girls 3:21
3 Evil Eye 2:58
4 Fresh Strawberries 3:15
5 Right Action 3:05
6 Goodbye Lovers & Friends 3:31
7 Can't Stop Feeling 6:03
8 Treason! Animals. 3:59
9 Love & Destroy 2:55
10 Do You Want To 4:14
11 Ulysses 2:51
12 Love Illumination 4:07
13 Stand On The Horizon 4:13

EAC-Log, CUE-Sheed & NFO:

Click to open spoiler
Exact Audio Copy V1.0 beta 3 from 29. August 2011

EAC extraction logfile from 23. August 2013, 13:11

Franz Ferdinand / Right Notes, Right Words, Wrong Order

Used drive : hp DVDRAM GT30L Adapter: 0 ID: 1

Read mode : Secure
Utilize accurate stream : Yes
Defeat audio cache : Yes
Make use of C2 pointers : No

Read offset correction : 103
Overread into Lead-In and Lead-Out : No
Fill up missing offset samples with silence : Yes
Delete leading and trailing silent blocks : No
Null samples used in CRC calculations : Yes
Used interface : Native Win32 interface for Win NT & 2000
Gap handling : Appended to previous track

Used output format : User Defined Encoder
Selected bitrate : 1024 kBit/s
Quality : High
Add ID3 tag : No
Command line compressor : C:\Program Files\Exact Audio Copy\FLAC\FLAC.EXE
Additional command line options : -8 -V -T “ARTIST=%artist%” -T “TITLE=%title%” -T “ALBUM=%albumtitle%” -T “DATE=%year%” -T “TRACKNUMBER=%tracknr%” -T “GENRE=%genre%” -T “PERFORMER=%albuminterpret%” -T “COMPOSER=%composer%” %haslyrics%–tag-from-file=LYRICS=”%lyricsfile%”%haslyrics% -T “ALBUMARTIST=%albumartist%” -T “DISCNUMBER=%cdnumber%” -T “TOTALDISCS=%totalcds%” -T “TOTALTRACKS=%numtracks%” -T “COMMENT=%comment%” %source% -o %dest%

TOC of the extracted CD

Track | Start | Length | Start sector | End sector
———————————————————
1 | 0:00.00 | 2:41.37 | 0 | 12111
2 | 2:41.37 | 3:21.04 | 12112 | 27190
3 | 6:02.41 | 2:55.49 | 27191 | 40364
4 | 8:58.15 | 3:15.00 | 40365 | 54989
5 | 12:13.15 | 3:05.33 | 54990 | 68897
6 | 15:18.48 | 3:31.00 | 68898 | 84722
7 | 18:49.48 | 6:03.16 | 84723 | 111963
8 | 24:52.64 | 3:58.53 | 111964 | 129866
9 | 28:51.42 | 2:54.34 | 129867 | 142950
10 | 31:46.01 | 4:14.23 | 142951 | 162023
11 | 36:00.24 | 2:51.12 | 162024 | 174860
12 | 38:51.36 | 4:07.07 | 174861 | 193392
13 | 42:58.43 | 4:12.36 | 193393 | 212328

Track 1

Filename D:\Prive\Muziek\Franz Ferdinand – Right Thoughts, Right Words, Right Action (2013)\01 – Bullet.wav

Pre-gap length 0:00:02.00

Peak level 98.1 %
Extraction speed 1.1 X
Track quality 100.0 %
Test CRC AE6E5639
Copy CRC AE6E5639
Track not present in AccurateRip database
Copy OK

Track 2

Filename D:\Prive\Muziek\Franz Ferdinand – Right Thoughts, Right Words, Right Action (2013)\02 – No You Girls.wav

Pre-gap length 0:00:01.92

Peak level 97.2 %
Extraction speed 1.3 X
Track quality 100.0 %
Test CRC BDF3456D
Copy CRC BDF3456D
Track not present in AccurateRip database
Copy OK

Track 3

Filename D:\Prive\Muziek\Franz Ferdinand – Right Thoughts, Right Words, Right Action (2013)\03 – Evil Eye.wav

Pre-gap length 0:00:01.98

Peak level 98.8 %
Extraction speed 1.3 X
Track quality 100.0 %
Test CRC A4EA77AB
Copy CRC A4EA77AB
Track not present in AccurateRip database
Copy OK

Track 4

Filename D:\Prive\Muziek\Franz Ferdinand – Right Thoughts, Right Words, Right Action (2013)\04 – Fresh Strawberries.wav

Pre-gap length 0:00:01.98

Peak level 96.8 %
Extraction speed 1.4 X
Track quality 100.0 %
Test CRC 65BCAD75
Copy CRC 65BCAD75
Track not present in AccurateRip database
Copy OK

Track 5

Filename D:\Prive\Muziek\Franz Ferdinand – Right Thoughts, Right Words, Right Action (2013)\05 – Right Action.wav

Pre-gap length 0:00:01.98

Peak level 98.5 %
Extraction speed 1.5 X
Track quality 100.0 %
Test CRC 3C1748AD
Copy CRC 3C1748AD
Track not present in AccurateRip database
Copy OK

Track 6

Filename D:\Prive\Muziek\Franz Ferdinand – Right Thoughts, Right Words, Right Action (2013)\06 – Goodbye Lovers & Friends.wav

Pre-gap length 0:00:01.98

Peak level 96.9 %
Extraction speed 1.6 X
Track quality 100.0 %
Test CRC 965F5CCA
Copy CRC 965F5CCA
Track not present in AccurateRip database
Copy OK

Track 7

Filename D:\Prive\Muziek\Franz Ferdinand – Right Thoughts, Right Words, Right Action (2013)\07 – Can’t Stop Feeling.wav

Pre-gap length 0:00:01.98

Peak level 97.6 %
Extraction speed 1.7 X
Track quality 99.9 %
Test CRC E6C48931
Copy CRC E6C48931
Track not present in AccurateRip database
Copy OK

Track 8

Filename D:\Prive\Muziek\Franz Ferdinand – Right Thoughts, Right Words, Right Action (2013)\08 – Treason! Animals..wav

Pre-gap length 0:00:01.98

Peak level 96.8 %
Extraction speed 1.7 X
Track quality 99.9 %
Test CRC C208D359
Copy CRC C208D359
Track not present in AccurateRip database
Copy OK

Track 9

Filename D:\Prive\Muziek\Franz Ferdinand – Right Thoughts, Right Words, Right Action (2013)\09 – Love & Destroy.wav

Pre-gap length 0:00:01.98

Peak level 96.8 %
Extraction speed 1.9 X
Track quality 100.0 %
Test CRC D8BD29B5
Copy CRC D8BD29B5
Track not present in AccurateRip database
Copy OK

Track 10

Filename D:\Prive\Muziek\Franz Ferdinand – Right Thoughts, Right Words, Right Action (2013)\10 – Do You Want To.wav

Pre-gap length 0:00:01.98

Peak level 99.4 %
Extraction speed 1.8 X
Track quality 99.9 %
Test CRC 686D0F26
Copy CRC 686D0F26
Track not present in AccurateRip database
Copy OK

Track 11

Filename D:\Prive\Muziek\Franz Ferdinand – Right Thoughts, Right Words, Right Action (2013)\11 – Ulysses.wav

Pre-gap length 0:00:01.98

Peak level 97.0 %
Extraction speed 2.0 X
Track quality 100.0 %
Test CRC D5015EA7
Copy CRC D5015EA7
Track not present in AccurateRip database
Copy OK

Track 12

Filename D:\Prive\Muziek\Franz Ferdinand – Right Thoughts, Right Words, Right Action (2013)\12 – Love Illumination.wav

Pre-gap length 0:00:01.97

Peak level 98.1 %
Extraction speed 2.2 X
Track quality 100.0 %
Test CRC 469CBD05
Copy CRC 469CBD05
Track not present in AccurateRip database
Copy OK

Track 13

Filename D:\Prive\Muziek\Franz Ferdinand – Right Thoughts, Right Words, Right Action (2013)\13 – Stand On The Horizon.wav

Pre-gap length 0:00:01.98

Peak level 97.0 %
Extraction speed 2.3 X
Track quality 100.0 %
Test CRC C19430EC
Copy CRC C19430EC
Track not present in AccurateRip database
Copy OK

None of the tracks are present in the AccurateRip database

No errors occurred

End of status report

—- CUETools DB Plugin V2.1.3

[CTDB TOCID: F0d3kIrVc6MpCkgCiCTfbVvMVDg-] found, Submit result: F0d3kIrVc6MpCkgCiCTfbVvMVDg- has been confirmed
[d3cd3ea8] (2/2) Accurately ripped

==== Log checksum 5DB6A22ED65A362BED5AB6E87412E01A26AE9CA0CA919C0449EBCC9058CCACB6 ====

Exact Audio Copy V1.0 beta 3 from 29. August 2011

EAC extraction logfile from 23. August 2013, 14:04

Franz Ferdinand / Right Thoughts, Right Words, Right Action

Used drive : hp DVDRAM GT30L Adapter: 0 ID: 1

Read mode : Secure
Utilize accurate stream : Yes
Defeat audio cache : Yes
Make use of C2 pointers : No

Read offset correction : 103
Overread into Lead-In and Lead-Out : No
Fill up missing offset samples with silence : Yes
Delete leading and trailing silent blocks : No
Null samples used in CRC calculations : Yes
Used interface : Native Win32 interface for Win NT & 2000
Gap handling : Appended to previous track

Used output format : User Defined Encoder
Selected bitrate : 1024 kBit/s
Quality : High
Add ID3 tag : No
Command line compressor : C:\Program Files\Exact Audio Copy\FLAC\FLAC.EXE
Additional command line options : -8 -V -T “ARTIST=%artist%” -T “TITLE=%title%” -T “ALBUM=%albumtitle%” -T “DATE=%year%” -T “TRACKNUMBER=%tracknr%” -T “GENRE=%genre%” -T “PERFORMER=%albuminterpret%” -T “COMPOSER=%composer%” %haslyrics%–tag-from-file=LYRICS=”%lyricsfile%”%haslyrics% -T “ALBUMARTIST=%albumartist%” -T “DISCNUMBER=%cdnumber%” -T “TOTALDISCS=%totalcds%” -T “TOTALTRACKS=%numtracks%” -T “COMMENT=%comment%” %source% -o %dest%

TOC of the extracted CD

Track | Start | Length | Start sector | End sector
———————————————————
1 | 0:00.00 | 3:02.21 | 0 | 13670
2 | 3:02.21 | 2:47.19 | 13671 | 26214
3 | 5:49.40 | 3:44.20 | 26215 | 43034
4 | 9:33.60 | 4:23.09 | 43035 | 62768
5 | 13:56.69 | 3:21.36 | 62769 | 77879
6 | 17:18.30 | 2:43.30 | 77880 | 90134
7 | 20:01.60 | 4:07.34 | 90135 | 108693
8 | 24:09.19 | 4:34.62 | 108694 | 129305
9 | 28:44.06 | 3:09.18 | 129306 | 143498
10 | 31:53.24 | 3:15.53 | 143499 | 158176

Track 1

Filename D:\Prive\Muziek\Franz Ferdinand – Right Thoughts, Right Words, Right Action (2013)\CD 1\01 – Right Action.wav

Pre-gap length 0:00:02.00

Peak level 100.0 %
Extraction speed 1.0 X
Track quality 99.9 %
Test CRC 42686877
Copy CRC 42686877
Track not present in AccurateRip database
Copy OK

Track 2

Filename D:\Prive\Muziek\Franz Ferdinand – Right Thoughts, Right Words, Right Action (2013)\CD 1\02 – Evil Eye.wav

Peak level 100.0 %
Extraction speed 1.2 X
Track quality 100.0 %
Test CRC AF9151D7
Copy CRC AF9151D7
Track not present in AccurateRip database
Copy OK

Track 3

Filename D:\Prive\Muziek\Franz Ferdinand – Right Thoughts, Right Words, Right Action (2013)\CD 1\03 – Love Illumination.wav

Pre-gap length 0:00:00.80

Peak level 100.0 %
Extraction speed 1.4 X
Track quality 100.0 %
Test CRC B72D788F
Copy CRC B72D788F
Track not present in AccurateRip database
Copy OK

Track 4

Filename D:\Prive\Muziek\Franz Ferdinand – Right Thoughts, Right Words, Right Action (2013)\CD 1\04 – Stand On The Horizon.wav

Pre-gap length 0:00:01.93

Peak level 100.0 %
Extraction speed 1.6 X
Track quality 100.0 %
Test CRC 981B7766
Copy CRC 981B7766
Track not present in AccurateRip database
Copy OK

Track 5

Filename D:\Prive\Muziek\Franz Ferdinand – Right Thoughts, Right Words, Right Action (2013)\CD 1\05 – Fresh Strawberries.wav

Peak level 100.0 %
Extraction speed 1.4 X
Track quality 99.9 %
Test CRC 5B27B527
Copy CRC 5B27B527
Track not present in AccurateRip database
Copy OK

Track 6

Filename D:\Prive\Muziek\Franz Ferdinand – Right Thoughts, Right Words, Right Action (2013)\CD 1\06 – Bullet.wav

Pre-gap length 0:00:00.69

Peak level 100.0 %
Extraction speed 1.6 X
Track quality 100.0 %
Test CRC 7F9B2EDC
Copy CRC 7F9B2EDC
Track not present in AccurateRip database
Copy OK

Track 7

Filename D:\Prive\Muziek\Franz Ferdinand – Right Thoughts, Right Words, Right Action (2013)\CD 1\07 – Treason! Animals..wav

Pre-gap length 0:00:00.66

Peak level 100.0 %
Extraction speed 1.8 X
Track quality 100.0 %
Test CRC 103CFC0F
Copy CRC 103CFC0F
Track not present in AccurateRip database
Copy OK

Track 8

Filename D:\Prive\Muziek\Franz Ferdinand – Right Thoughts, Right Words, Right Action (2013)\CD 1\08 – The Universe Expanded.wav

Pre-gap length 0:00:00.53

Peak level 100.0 %
Extraction speed 2.0 X
Track quality 100.0 %
Test CRC F31D2EB3
Copy CRC F31D2EB3
Track not present in AccurateRip database
Copy OK

Track 9

Filename D:\Prive\Muziek\Franz Ferdinand – Right Thoughts, Right Words, Right Action (2013)\CD 1\09 – Brief Encounters.wav

Peak level 100.0 %
Extraction speed 1.7 X
Track quality 99.9 %
Test CRC 1A3BD7F7
Copy CRC 1A3BD7F7
Track not present in AccurateRip database
Copy OK

Track 10

Filename D:\Prive\Muziek\Franz Ferdinand – Right Thoughts, Right Words, Right Action (2013)\CD 1\10 – Goodbye Lovers & Friends.wav

Pre-gap length 0:00:01.90

Peak level 100.0 %
Extraction speed 2.0 X
Track quality 100.0 %
Test CRC 34ECCECE
Copy CRC 34ECCECE
Track not present in AccurateRip database
Copy OK

None of the tracks are present in the AccurateRip database

No errors occurred

End of status report

—- CUETools DB Plugin V2.1.3

[CTDB TOCID: k7CYJMGqnSRaXZutBwGmoxdUeWk-] found, Submit result: k7CYJMGqnSRaXZutBwGmoxdUeWk- has been confirmed
[e16db01e] (4/4) Accurately ripped

==== Log checksum 1FAB180ACB7E494FE5638E9D4CE70E7B0FD52C2F4D0E0B4F0C970BD5D72D4DD7 ====

REM GENRE Rock
REM DATE 2013
REM DISCID 72083D0A
REM COMMENT “ExactAudioCopy v1.0b3”
PERFORMER “Franz Ferdinand”
TITLE “Right Thoughts, Right Words, Right Action”
FILE “01 – Right Action.wav” WAVE
TRACK 01 AUDIO
TITLE “Right Action”
PERFORMER “Franz Ferdinand”
INDEX 01 00:00:00
FILE “02 – Evil Eye.wav” WAVE
TRACK 02 AUDIO
TITLE “Evil Eye”
PERFORMER “Franz Ferdinand”
INDEX 01 00:00:00
TRACK 03 AUDIO
TITLE “Love Illumination”
PERFORMER “Franz Ferdinand”
INDEX 00 02:46:34
FILE “03 – Love Illumination.wav” WAVE
INDEX 01 00:00:00
TRACK 04 AUDIO
TITLE “Stand On The Horizon”
PERFORMER “Franz Ferdinand”
INDEX 00 03:42:25
FILE “04 – Stand On The Horizon.wav” WAVE
INDEX 01 00:00:00
FILE “05 – Fresh Strawberries.wav” WAVE
TRACK 05 AUDIO
TITLE “Fresh Strawberries”
PERFORMER “Franz Ferdinand”
INDEX 01 00:00:00
TRACK 06 AUDIO
TITLE “Bullet”
PERFORMER “Franz Ferdinand”
INDEX 00 03:20:59
FILE “06 – Bullet.wav” WAVE
INDEX 01 00:00:00
TRACK 07 AUDIO
TITLE “Treason! Animals.”
PERFORMER “Franz Ferdinand”
INDEX 00 02:42:55
FILE “07 – Treason! Animals..wav” WAVE
INDEX 01 00:00:00
TRACK 08 AUDIO
TITLE “The Universe Expanded”
PERFORMER “Franz Ferdinand”
INDEX 00 04:06:69
FILE “08 – The Universe Expanded.wav” WAVE
INDEX 01 00:00:00
FILE “09 – Brief Encounters.wav” WAVE
TRACK 09 AUDIO
TITLE “Brief Encounters”
PERFORMER “Franz Ferdinand”
INDEX 01 00:00:00
TRACK 10 AUDIO
TITLE “Goodbye Lovers & Friends”
PERFORMER “Franz Ferdinand”
INDEX 00 03:07:25
FILE “10 – Goodbye Lovers & Friends.wav” WAVE
INDEX 01 00:00:00

REM GENRE Rock
REM DATE 2013
REM DISCID 990B0F0D
REM COMMENT “ExactAudioCopy v1.0b3”
PERFORMER “Franz Ferdinand”
TITLE “Right Notes, Right Words, Wrong Order”
FILE “01 – Bullet.wav” WAVE
TRACK 01 AUDIO
TITLE “Bullet”
PERFORMER “Franz Ferdinand”
INDEX 01 00:00:00
TRACK 02 AUDIO
TITLE “No You Girls”
PERFORMER “Franz Ferdinand”
INDEX 00 02:39:43
FILE “02 – No You Girls.wav” WAVE
INDEX 01 00:00:00
TRACK 03 AUDIO
TITLE “Evil Eye”
PERFORMER “Franz Ferdinand”
INDEX 00 03:19:05
FILE “03 – Evil Eye.wav” WAVE
INDEX 01 00:00:00
TRACK 04 AUDIO
TITLE “Fresh Strawberries”
PERFORMER “Franz Ferdinand”
INDEX 00 02:53:50
FILE “04 – Fresh Strawberries.wav” WAVE
INDEX 01 00:00:00
TRACK 05 AUDIO
TITLE “Right Action”
PERFORMER “Franz Ferdinand”
INDEX 00 03:13:01
FILE “05 – Right Action.wav” WAVE
INDEX 01 00:00:00
TRACK 06 AUDIO
TITLE “Goodbye Lovers & Friends”
PERFORMER “Franz Ferdinand”
INDEX 00 03:03:34
FILE “06 – Goodbye Lovers & Friends.wav” WAVE
INDEX 01 00:00:00
TRACK 07 AUDIO
TITLE “Can’t Stop Feeling”
PERFORMER “Franz Ferdinand”
INDEX 00 03:29:01
FILE “07 – Can’t Stop Feeling.wav” WAVE
INDEX 01 00:00:00
TRACK 08 AUDIO
TITLE “Treason! Animals.”
PERFORMER “Franz Ferdinand”
INDEX 00 06:01:17
FILE “08 – Treason! Animals..wav” WAVE
INDEX 01 00:00:00
TRACK 09 AUDIO
TITLE “Love & Destroy”
PERFORMER “Franz Ferdinand”
INDEX 00 03:56:54
FILE “09 – Love & Destroy.wav” WAVE
INDEX 01 00:00:00
TRACK 10 AUDIO
TITLE “Do You Want To”
PERFORMER “Franz Ferdinand”
INDEX 00 02:52:35
FILE “10 – Do You Want To.wav” WAVE
INDEX 01 00:00:00
TRACK 11 AUDIO
TITLE “Ulysses”
PERFORMER “Franz Ferdinand”
INDEX 00 04:12:24
FILE “11 – Ulysses.wav” WAVE
INDEX 01 00:00:00
TRACK 12 AUDIO
TITLE “Love Illumination”
PERFORMER “Franz Ferdinand”
INDEX 00 02:49:14
FILE “12 – Love Illumination.wav” WAVE
INDEX 01 00:00:00
TRACK 13 AUDIO
TITLE “Stand On The Horizon”
PERFORMER “Franz Ferdinand”
INDEX 00 04:05:08
FILE “13 – Stand On The Horizon.wav” WAVE
INDEX 01 00:00:00


Leave a Reply

Your email address will not be published. Required fields are marked *

Enter the text from the image below
 

This site uses Akismet to reduce spam. Learn how your comment data is processed.