Franz Ferdinand – Always Ascending




No Cover available

Artist: Franz Ferdinand
Year: 2018
Genre: Rock
Notes: Discogs
Add. Notes:
Watch Songs on: YouTube
Cover incl.: Yes
Encoder: FLAC
Bitrate: ~1000 kBit/s (44.1 kHz/16 Bit/s)
Log & Cue incl.: Yes/Yes
Size: 281,4 MB
Password: “slam” (without ” “)


All Downloads/Hosters are compatible

Download 1
KatFile.com
Turbobit.net
Rapidgator.net
FileFactory.com
Download 2
KatFile.com
Turbobit.net
Rapidgator.net
FileFactory.com

Tracklist:

1 Always Ascending 5:21
2 Lazy Boy 2:59
3 Paper Cages 3:40
4 Finally 3:09
5 The Academy Award 4:14
6 Lois Lane 3:34
7 Huck And Jim 3:35
8 Glimpse Of Love 3:12
9 Feel The Love Go 4:46
10 Slow Don't Kill Me Slow 5:18

EAC-Log, CUE-Sheed & NFO:

Click to open spoiler
Exact Audio Copy V1.1 from 23. June 2015

EAC extraction logfile from 22. February 2018, 21:19

Franz Ferdinand / Always Ascending

Used drive : TSSTcorpDVDWBD SH-B123L Adapter: 0 ID: 4

Read mode : Secure
Utilize accurate stream : Yes
Defeat audio cache : Yes
Make use of C2 pointers : No

Read offset correction : 6
Overread into Lead-In and Lead-Out : No
Fill up missing offset samples with silence : Yes
Delete leading and trailing silent blocks : No
Null samples used in CRC calculations : Yes
Used interface : Installed external ASPI interface

Used output format : User Defined Encoder
Selected bitrate : 768 kBit/s
Quality : High
Add ID3 tag : No
Command line compressor : C:\Program Files (x86)\Exact Audio Copy\FLAC\FLAC.EXE
Additional command line options : -6 -V -T “ARTIST=%artist%” -T “TITLE=%title%” -T “ALBUM=%albumtitle%” -T “DATE=%year%” -T “TRACKNUMBER=%tracknr%” -T “GENRE=%genre%” -T “COMMENT=%comment%” -T “BAND=%albuminterpret%” -T “ALBUMARTIST=%albuminterpret%” -T “COMPOSER=%composer%” %haslyrics%–tag-from-file=LYRICS=”%lyricsfile%”%haslyrics% -T “DISCNUMBER=%cdnumber%” -T “TOTALDISCS=%totalcds%” -T “TOTALTRACKS=%numtracks%” %hascover%–picture=”%coverfile%”%hascover% %source% -o %dest%

TOC of the extracted CD

Track | Start | Length | Start sector | End sector
———————————————————
1 | 0:00.00 | 5:21.46 | 0 | 24120
2 | 5:21.46 | 2:59.39 | 24121 | 37584
3 | 8:21.10 | 3:40.62 | 37585 | 54146
4 | 12:01.72 | 3:09.68 | 54147 | 68389
5 | 15:11.65 | 4:14.01 | 68390 | 87440
6 | 19:25.66 | 3:34.09 | 87441 | 103499
7 | 23:00.00 | 3:35.11 | 103500 | 119635
8 | 26:35.11 | 3:12.23 | 119636 | 134058
9 | 29:47.34 | 4:46.33 | 134059 | 155541
10 | 34:33.67 | 5:18.15 | 155542 | 179406

Range status and errors

Selected range

Filename E:\MUSIC\Franz Ferdinand – Always Ascending.wav

Peak level 100.0 %
Extraction speed 3.4 X
Range quality 100.0 %
Test CRC 03A125D3
Copy CRC 03A125D3
Copy OK

No errors occurred

AccurateRip summary

Track 1 cannot be verified as accurate (confidence 2) [3D65A896], AccurateRip returned [0F1A84E3] (AR v2)
Track 2 cannot be verified as accurate (confidence 2) [0DC7430A], AccurateRip returned [7EB412C0] (AR v2)
Track 3 cannot be verified as accurate (confidence 2) [6F5146DC], AccurateRip returned [8A310308] (AR v2)
Track 4 cannot be verified as accurate (confidence 2) [F2354907], AccurateRip returned [6C490A81] (AR v2)
Track 5 cannot be verified as accurate (confidence 2) [7E5681A6], AccurateRip returned [4F2BCBDA] (AR v2)
Track 6 cannot be verified as accurate (confidence 2) [9360F3BA], AccurateRip returned [E510BE42] (AR v2)
Track 7 cannot be verified as accurate (confidence 2) [D928D054], AccurateRip returned [230FC373] (AR v2)
Track 8 cannot be verified as accurate (confidence 2) [456ACD07], AccurateRip returned [628AF9CD] (AR v2)
Track 9 cannot be verified as accurate (confidence 2) [EBE8B331], AccurateRip returned [E6632886] (AR v2)
Track 10 cannot be verified as accurate (confidence 2) [10E41A20], AccurateRip returned [CAC1C20A] (AR v2)

No tracks could be verified as accurate
You may have a different pressing from the one(s) in the database

End of status report

==== Log checksum 413A1A277D6BCDEA08A52262C214D3F23CBEBE086AD90338B320EE00B7F12297 ====

REM GENRE “Indie rock”
REM DATE 2018
REM DISCID 8509580A
REM COMMENT “ExactAudioCopy v1.1”
PERFORMER “Franz Ferdinand”
TITLE “Always Ascending”
FILE “Franz Ferdinand – Always Ascending.flac” WAVE
TRACK 01 AUDIO
TITLE “Always Ascending”
PERFORMER “Franz Ferdinand”
INDEX 01 00:00:00
TRACK 02 AUDIO
TITLE “Lazy Boy”
PERFORMER “Franz Ferdinand”
INDEX 00 05:21:08
INDEX 01 05:21:46
TRACK 03 AUDIO
TITLE “Paper Cages”
PERFORMER “Franz Ferdinand”
INDEX 01 08:21:10
TRACK 04 AUDIO
TITLE “Finally”
PERFORMER “Franz Ferdinand”
INDEX 00 12:00:35
INDEX 01 12:01:72
TRACK 05 AUDIO
TITLE “The Academy Award”
PERFORMER “Franz Ferdinand”
INDEX 00 15:11:24
INDEX 01 15:11:65
TRACK 06 AUDIO
TITLE “Lois Lane”
PERFORMER “Franz Ferdinand”
INDEX 00 19:25:63
INDEX 01 19:25:66
TRACK 07 AUDIO
TITLE “Huck and Jim”
PERFORMER “Franz Ferdinand”
INDEX 00 22:59:53
INDEX 01 23:00:00
TRACK 08 AUDIO
TITLE “Glimpse of Love”
PERFORMER “Franz Ferdinand”
INDEX 01 26:35:11
TRACK 09 AUDIO
TITLE “Feel the Love Go”
PERFORMER “Franz Ferdinand”
INDEX 00 29:46:52
INDEX 01 29:47:34
TRACK 10 AUDIO
TITLE “Slow Don’t Kill Me Slow”
PERFORMER “Franz Ferdinand”
INDEX 00 34:31:50
INDEX 01 34:33:67


0

Publication author

offline 7 hours

Chaos

3
Comments: 4Publics: 3360Registration: 02-02-2019
Spread the Download

Leave a Reply

Your email address will not be published. Required fields are marked *

Enter the text from the image below
 

This site uses Akismet to reduce spam. Learn how your comment data is processed.