Foo Fighters – Wasting Light




[Total: 0    Average: 0/5]

Artist: Foo Fighters
Year: 2011
Genre: Rock
Notes: Discogs
Add. Notes:
Cover incl.: Yes
Encoder: FLAC
Bitrate: ~1000 kBit/s (44.1 kHz/16 Bit/s)
Log & Cue incl.: Yes
Size: 364,03 MB
Password: “slam” (without ” “)


All Downloads/Hosters are compatible

Download 1
Share-online.biz
KatFile.com
Rapidgator.net
Download 2
Share-online.biz
KatFile.com
Rapidgator.net

Tracklist:

1 - Bridge Burning - 4:47
2 - Rope - 4:19
3 - Dear Rosemary - 4:27
4 - White Limo - 3:23
5 - Arlandria - 4:28
6 - These Days - 4:59
7 - Back & Forth - 3:52
8 - A Matter Of Time - 4:36
9 - Miss The Misery - 4:34
10 - I Should Have Known - 4:16
11 - Walk - 4:16

EAC-Log, CUE-Sheed & NFO:

Click to open spoiler
Exact Audio Copy V1.0 beta 1 from 15. November 2010

EAC extraction logfile from 19. April 2011, 17:40

Foo Fighters / Wasting Light US (88697-84493-2)

Used drive : HP DVD Writer 1070d Adapter: 2 ID: 0

Read mode : Secure
Utilize accurate stream : Yes
Defeat audio cache : Yes
Make use of C2 pointers : No

Read offset correction : 6
Overread into Lead-In and Lead-Out : No
Fill up missing offset samples with silence : Yes
Delete leading and trailing silent blocks : No
Null samples used in CRC calculations : Yes
Used interface : Native Win32 interface for Win NT & 2000
Gap handling : Appended to previous track

Used output format : User Defined Encoder
Selected bitrate : 128 kBit/s
Quality : High
Add ID3 tag : No
Command line compressor : C:\Program Files\Exact Audio Copy\Flac\flac.exe
Additional command line options : -8 -V -T “ARTIST=%a” -T “TITLE=%t” -T “ALBUM=%g” -T “DATE=%y” -T “TRACKNUMBER=%n” -T “GENRE=%m” -T “COMMENT=EAC FLAC -8” %s

TOC of the extracted CD

Track | Start | Length | Start sector | End sector
———————————————————
1 | 0:00.00 | 4:46.60 | 0 | 21509
2 | 4:46.60 | 4:19.02 | 21510 | 40936
3 | 9:05.62 | 4:26.40 | 40937 | 60926
4 | 13:32.27 | 3:22.38 | 60927 | 76114
5 | 16:54.65 | 4:28.02 | 76115 | 96216
6 | 21:22.67 | 4:58.45 | 96217 | 118611
7 | 26:21.37 | 3:52.33 | 118612 | 136044
8 | 30:13.70 | 4:36.07 | 136045 | 156751
9 | 34:50.02 | 4:33.53 | 156752 | 177279
10 | 39:23.55 | 4:15.55 | 177280 | 196459
11 | 43:39.35 | 4:15.72 | 196460 | 215656

Track 1

Filename G:\01 – Bridge Burning.wav

Pre-gap length 0:00:02.00

Peak level 100.0 %
Extraction speed 2.1 X
Track quality 100.0 %
Test CRC 6EAB1A86
Copy CRC 6EAB1A86
Track not present in AccurateRip database
Copy OK

Track 2

Filename G:\02 – Rope.wav

Pre-gap length 0:00:00.33

Peak level 100.0 %
Extraction speed 2.3 X
Track quality 100.0 %
Test CRC D4A2B42F
Copy CRC D4A2B42F
Track not present in AccurateRip database
Copy OK

Track 3

Filename G:\03 – Dear Rosemary.wav

Peak level 100.0 %
Extraction speed 2.5 X
Track quality 100.0 %
Test CRC EB6CA1F7
Copy CRC EB6CA1F7
Track not present in AccurateRip database
Copy OK

Track 4

Filename G:\04 – White Limo.wav

Peak level 100.0 %
Extraction speed 2.6 X
Track quality 100.0 %
Test CRC 955E8A65
Copy CRC 955E8A65
Track not present in AccurateRip database
Copy OK

Track 5

Filename G:\05 – Arlandria.wav

Pre-gap length 0:00:00.04

Peak level 100.0 %
Extraction speed 2.8 X
Track quality 100.0 %
Test CRC D56FDB52
Copy CRC D56FDB52
Track not present in AccurateRip database
Copy OK

Track 6

Filename G:\06 – These Days.wav

Pre-gap length 0:00:00.46

Peak level 100.0 %
Extraction speed 3.1 X
Track quality 100.0 %
Test CRC 32593B05
Copy CRC 32593B05
Track not present in AccurateRip database
Copy OK

Track 7

Filename G:\07 – Back & Forth.wav

Pre-gap length 0:00:00.33

Peak level 100.0 %
Extraction speed 2.4 X
Track quality 99.9 %
Test CRC B2CD5FC4
Copy CRC B2CD5FC4
Track not present in AccurateRip database
Copy OK

Track 8

Filename G:\08 – A Matter Of Time.wav

Pre-gap length 0:00:00.50

Peak level 100.0 %
Extraction speed 3.3 X
Track quality 100.0 %
Test CRC 80F159A4
Copy CRC 80F159A4
Track not present in AccurateRip database
Copy OK

Track 9

Filename G:\09 – Miss The Misery.wav

Peak level 100.0 %
Extraction speed 3.5 X
Track quality 100.0 %
Test CRC 86DB2585
Copy CRC 86DB2585
Track not present in AccurateRip database
Copy OK

Track 10

Filename G:\10 – I Should Have Known.wav

Pre-gap length 0:00:01.73

Peak level 100.0 %
Extraction speed 3.6 X
Track quality 100.0 %
Test CRC 824A80A8
Copy CRC 824A80A8
Track not present in AccurateRip database
Copy OK

Track 11

Filename G:\11 – Walk.wav

Peak level 97.7 %
Extraction speed 3.7 X
Track quality 100.0 %
Test CRC 26164A4A
Copy CRC 26164A4A
Track not present in AccurateRip database
Copy OK

None of the tracks are present in the AccurateRip database

No errors occurred

End of status report

REM GENRE Rock
REM DATE 2011
REM DISCID 900B3B0B
REM COMMENT “ExactAudioCopy v1.0b1”
PERFORMER “Foo Fighters”
TITLE “Wasting Light US (88697-84493-2)”
FILE “01 – Bridge Burning.wav” WAVE
TRACK 01 AUDIO
TITLE “Bridge Burning”
PERFORMER “Foo Fighters”
INDEX 01 00:00:00
TRACK 02 AUDIO
TITLE “Rope”
PERFORMER “Foo Fighters”
INDEX 00 04:46:35
FILE “02 – Rope.wav” WAVE
INDEX 01 00:00:00
FILE “03 – Dear Rosemary.wav” WAVE
TRACK 03 AUDIO
TITLE “Dear Rosemary”
PERFORMER “Foo Fighters”
INDEX 01 00:00:00
FILE “04 – White Limo.wav” WAVE
TRACK 04 AUDIO
TITLE “White Limo”
PERFORMER “Foo Fighters”
INDEX 01 00:00:00
TRACK 05 AUDIO
TITLE “Arlandria”
PERFORMER “Foo Fighters”
INDEX 00 03:22:35
FILE “05 – Arlandria.wav” WAVE
INDEX 01 00:00:00
TRACK 06 AUDIO
TITLE “These Days”
PERFORMER “Foo Fighters”
INDEX 00 04:27:42
FILE “06 – These Days.wav” WAVE
INDEX 01 00:00:00
TRACK 07 AUDIO
TITLE “Back & Forth”
PERFORMER “Foo Fighters”
INDEX 00 04:58:20
FILE “07 – Back & Forth.wav” WAVE
INDEX 01 00:00:00
TRACK 08 AUDIO
TITLE “A Matter Of Time”
PERFORMER “Foo Fighters”
INDEX 00 03:51:70
FILE “08 – A Matter Of Time.wav” WAVE
INDEX 01 00:00:00
FILE “09 – Miss The Misery.wav” WAVE
TRACK 09 AUDIO
TITLE “Miss The Misery”
PERFORMER “Foo Fighters”
INDEX 01 00:00:00
TRACK 10 AUDIO
TITLE “I Should Have Known”
PERFORMER “Foo Fighters”
INDEX 00 04:31:73
FILE “10 – I Should Have Known.wav” WAVE
INDEX 01 00:00:00
FILE “11 – Walk.wav” WAVE
TRACK 11 AUDIO
TITLE “Walk”
PERFORMER “Foo Fighters”
INDEX 01 00:00:00


Spread the Download

Leave a Reply

Your email address will not be published. Required fields are marked *

Enter the text from the image below
 

This site uses Akismet to reduce spam. Learn how your comment data is processed.