Foo Fighters – There Is Nothing Left To Lose (Enhanced)




[Total: 0    Average: 0/5]

Artist: Foo Fighters
Year: 1999
Genre: Rock
Notes: Discogs
Add. Notes: Enhanced
Cover incl.: Yes
Encoder: FLAC
Bitrate: ~1000 kBit/s (44.1 kHz/16 Bit/s)
Log & Cue incl.: Yes
Size: 420,96 MB
Password: “slam” (without ” “)


All Downloads/Hosters are compatible

Download 1
Share-online.biz
KatFile.com
Rapidgator.net
Mexa.sh
Download 2
Share-online.biz
KatFile.com
Rapidgator.net
Mexa.sh

Tracklist:

1 - Stacked Actors - 4:17
2 - Breakout - 3:21
3 - Learn To Fly - 3:58
4 - Gimme Stitches - 3:42
5 - Generator - 3:48
6 - Aurora - 5:50
7 - Live-In Skin - 3:53
8 - Next Year - 4:37
9 - Headwires - 4:38
10 - Ain't It The Life - 4:17
11 - M.I.A. - 4:03

+ PC-Extra

EAC-Log, CUE-Sheed & NFO:

Click to open spoiler
Exact Audio Copy V1.0 beta 1 from 15. November 2010

EAC extraction logfile from 3. January 2011, 14:16

Foo Fighters / There Is Nothing Left To Lose ECD EU (07863 67892 2)

Used drive : HP DVD Writer 1070d Adapter: 2 ID: 0

Read mode : Secure
Utilize accurate stream : Yes
Defeat audio cache : Yes
Make use of C2 pointers : No

Read offset correction : 6
Overread into Lead-In and Lead-Out : No
Fill up missing offset samples with silence : Yes
Delete leading and trailing silent blocks : No
Null samples used in CRC calculations : Yes
Used interface : Native Win32 interface for Win NT & 2000
Gap handling : Appended to previous track

Used output format : User Defined Encoder
Selected bitrate : 896 kBit/s
Quality : High
Add ID3 tag : No
Command line compressor : C:\Program Files\Exact Audio Copy\flac.exe
Additional command line options : -8 -V -T “ARTIST=%a” -T “TITLE=%t” -T “ALBUM=%g” -T “DATE=%y” -T “TRACKNUMBER=%n” -T “GENRE=%m” -T “COMMENT=EAC FLAC -8” %s

TOC of the extracted CD

Track | Start | Length | Start sector | End sector
———————————————————
1 | 0:00.00 | 4:16.35 | 0 | 19234
2 | 4:16.35 | 3:20.60 | 19235 | 34294
3 | 7:37.20 | 3:55.22 | 34295 | 51941
4 | 11:32.42 | 3:42.15 | 51942 | 68606
5 | 15:14.57 | 3:49.17 | 68607 | 85798
6 | 19:03.74 | 5:51.04 | 85799 | 112127
7 | 24:55.03 | 3:52.57 | 112128 | 129584
8 | 28:47.60 | 4:37.58 | 129585 | 150417
9 | 33:25.43 | 4:37.41 | 150418 | 171233
10 | 38:03.09 | 4:14.58 | 171234 | 190341
11 | 42:17.67 | 4:03.21 | 190342 | 208587
12 | 48:53.13 | 12:54.38 | 219988 | 278075

Track 1

Filename G:\01 – Stacked Actors.wav

Pre-gap length 0:00:02.00

Peak level 95.7 %
Extraction speed 2.0 X
Track quality 100.0 %
Test CRC 12901852
Copy CRC 12901852
Accurately ripped (confidence 68) [C29CD8B5]
Copy OK

Track 2

Filename G:\02 – Breakout.wav

Peak level 97.7 %
Extraction speed 2.1 X
Track quality 100.0 %
Test CRC 41B547B2
Copy CRC 41B547B2
Accurately ripped (confidence 69) [7E78E46B]
Copy OK

Track 3

Filename G:\03 – Learn To Fly.wav

Peak level 94.6 %
Extraction speed 2.3 X
Track quality 100.0 %
Test CRC 7820FD28
Copy CRC 7820FD28
Accurately ripped (confidence 71) [F7B38E58]
Copy OK

Track 4

Filename G:\04 – Gimme Stitches.wav

Peak level 94.6 %
Extraction speed 2.5 X
Track quality 100.0 %
Test CRC 8C43B81E
Copy CRC 8C43B81E
Accurately ripped (confidence 68) [5BEE8E22]
Copy OK

Track 5

Filename G:\05 – Generator.wav

Peak level 97.0 %
Extraction speed 2.6 X
Track quality 100.0 %
Test CRC 3A272C35
Copy CRC 3A272C35
Accurately ripped (confidence 69) [B7330EB6]
Copy OK

Track 6

Filename G:\06 – Aurora.wav

Pre-gap length 0:00:01.65

Peak level 94.6 %
Extraction speed 3.0 X
Track quality 100.0 %
Test CRC 2A8395A9
Copy CRC 2A8395A9
Accurately ripped (confidence 68) [EEA7552E]
Copy OK

Track 7

Filename G:\07 – Live-In Skin.wav

Pre-gap length 0:00:01.36

Peak level 95.0 %
Extraction speed 2.4 X
Track quality 99.9 %
Test CRC D9BB9987
Copy CRC D9BB9987
Accurately ripped (confidence 68) [DC1B90F5]
Copy OK

Track 8

Filename G:\08 – Next Year.wav

Pre-gap length 0:00:00.02

Peak level 95.7 %
Extraction speed 3.2 X
Track quality 100.0 %
Test CRC 1C20C0BF
Copy CRC 1C20C0BF
Accurately ripped (confidence 68) [4ED14A55]
Copy OK

Track 9

Filename G:\09 – Headwires.wav

Pre-gap length 0:00:01.54

Peak level 98.2 %
Extraction speed 3.3 X
Track quality 100.0 %
Test CRC 741BB59C
Copy CRC 741BB59C
Accurately ripped (confidence 68) [B7B7A8EE]
Copy OK

Track 10

Filename G:\10 – Ain’t It The Life.wav

Pre-gap length 0:00:00.12

Peak level 95.7 %
Extraction speed 3.5 X
Track quality 100.0 %
Test CRC 4D962A95
Copy CRC 4D962A95
Accurately ripped (confidence 68) [6878358E]
Copy OK

Track 11

Filename G:\11 – M.I.A..wav

Peak level 97.7 %
Extraction speed 3.5 X
Track quality 100.0 %
Test CRC 572041F9
Copy CRC 572041F9
Accurately ripped (confidence 67) [E84E7DDD]
Copy OK

All tracks accurately ripped

No errors occurred

End of status report

REM GENRE Rock
REM DATE 1999
REM DISCID B90E7B0C
REM COMMENT “ExactAudioCopy v1.0b1”
PERFORMER “Foo Fighters”
TITLE “There Is Nothing Left To Lose ECD EU (07863 67892 2)”
FILE “01 – Stacked Actors.wav” WAVE
TRACK 01 AUDIO
TITLE “Stacked Actors”
PERFORMER “Foo Fighters”
INDEX 01 00:00:00
FILE “02 – Breakout.wav” WAVE
TRACK 02 AUDIO
TITLE “Breakout”
PERFORMER “Foo Fighters”
INDEX 01 00:00:00
FILE “03 – Learn To Fly.wav” WAVE
TRACK 03 AUDIO
TITLE “Learn To Fly”
PERFORMER “Foo Fighters”
INDEX 01 00:00:00
FILE “04 – Gimme Stitches.wav” WAVE
TRACK 04 AUDIO
TITLE “Gimme Stitches”
PERFORMER “Foo Fighters”
INDEX 01 00:00:00
FILE “05 – Generator.wav” WAVE
TRACK 05 AUDIO
TITLE “Generator”
PERFORMER “Foo Fighters”
INDEX 01 00:00:00
TRACK 06 AUDIO
TITLE “Aurora”
PERFORMER “Foo Fighters”
INDEX 00 03:47:43
FILE “06 – Aurora.wav” WAVE
INDEX 01 00:00:00
TRACK 07 AUDIO
TITLE “Live-In Skin”
PERFORMER “Foo Fighters”
INDEX 00 05:49:52
FILE “07 – Live-In Skin.wav” WAVE
INDEX 01 00:00:00
TRACK 08 AUDIO
TITLE “Next Year”
PERFORMER “Foo Fighters”
INDEX 00 03:52:55
FILE “08 – Next Year.wav” WAVE
INDEX 01 00:00:00
TRACK 09 AUDIO
TITLE “Headwires”
PERFORMER “Foo Fighters”
INDEX 00 04:36:17
FILE “09 – Headwires.wav” WAVE
INDEX 01 00:00:00
TRACK 10 AUDIO
TITLE “Ain’t It The Life”
PERFORMER “Foo Fighters”
INDEX 00 04:37:32
FILE “10 – Ain’t It The Life.wav” WAVE
INDEX 01 00:00:00
FILE “11 – M.I.A..wav” WAVE
TRACK 11 AUDIO
TITLE “M.I.A.”
PERFORMER “Foo Fighters”
INDEX 01 00:00:00
TRACK 12 MODEx/2xxx
TITLE “Track12”
PERFORMER “Foo Fighters”
INDEX 00 04:03:21


Spread the Download

Leave a Reply

Your email address will not be published. Required fields are marked *

Enter the text from the image below
 

This site uses Akismet to reduce spam. Learn how your comment data is processed.