Foo Fighters – There Is Nothing Left To Lose (Japanese Edition)




Artist: Foo Fighters
Year: 1999
Genre: Rock
Notes: Discogs
Add. Notes: Japanese Edition
Cover incl.: Yes
Encoder: FLAC
Bitrate: ~1000 kBit/s (44.1 kHz/16 Bit/s)
Log & Cue incl.: Yes
Size: 443,82 MB
Password: “slam” (without ” “)


All Downloads/Hosters are compatible

Download 1
Turbobit.net
KatFile.com
Rapidgator.net
Download 2
Turbobit.net
KatFile.com
Rapidgator.net

Tracklist:

1 - Stacked Actors - 4:17
2 - Breakout - 3:21
3 - Learn To Fly - 3:58
4 - Gimme Stitches - 3:42
5 - Generator - 3:48
6 - Aurora - 5:50
7 - Live-In Skin - 3:53
8 - Next Year - 4:37
9 - Headwires - 4:38
10 - Ain't It The Life - 4:37
11 - M.I.A. - 4:03
12 - Fraternity - 3:09

+ PC Extra!

EAC-Log, CUE-Sheed & NFO:

Click to open spoiler
Exact Audio Copy V1.0 beta 1 from 15. November 2010

EAC extraction logfile from 10. August 2011, 14:59

Foo Fighters / There Is Nothing Left To Lose Japan (BVCM-35131)

Used drive : HP DVD Writer 1070d Adapter: 2 ID: 0

Read mode : Secure
Utilize accurate stream : Yes
Defeat audio cache : Yes
Make use of C2 pointers : No

Read offset correction : 6
Overread into Lead-In and Lead-Out : No
Fill up missing offset samples with silence : Yes
Delete leading and trailing silent blocks : No
Null samples used in CRC calculations : Yes
Used interface : Native Win32 interface for Win NT & 2000
Gap handling : Appended to previous track

Used output format : User Defined Encoder
Selected bitrate : 128 kBit/s
Quality : High
Add ID3 tag : No
Command line compressor : C:\Program Files\Exact Audio Copy\Flac\flac.exe
Additional command line options : -8 -V -T “ARTIST=%a” -T “TITLE=%t” -T “ALBUM=%g” -T “DATE=%y” -T “TRACKNUMBER=%n” -T “GENRE=%m” -T “COMMENT=EAC FLAC -8” %s

TOC of the extracted CD

Track | Start | Length | Start sector | End sector
———————————————————
1 | 0:00.00 | 4:17.10 | 0 | 19284
2 | 4:17.10 | 3:20.60 | 19285 | 34344
3 | 7:37.70 | 3:55.22 | 34345 | 51991
4 | 11:33.17 | 3:42.15 | 51992 | 68656
5 | 15:15.32 | 3:49.35 | 68657 | 85866
6 | 19:04.67 | 5:51.13 | 85867 | 112204
7 | 24:56.05 | 3:52.57 | 112205 | 129661
8 | 28:48.62 | 4:38.10 | 129662 | 150521
9 | 33:26.72 | 4:37.70 | 150522 | 171366
10 | 38:04.67 | 4:14.58 | 171367 | 190474
11 | 42:19.50 | 4:06.25 | 190475 | 208949
12 | 46:26.00 | 3:10.00 | 208950 | 223199
13 | 52:08.00 | 12:54.38 | 234600 | 292687

Track 1

Filename G:\01 – Stacked Actors.wav

Pre-gap length 0:00:02.00

Peak level 95.7 %
Extraction speed 2.0 X
Track quality 100.0 %
Test CRC B461B78C
Copy CRC B461B78C
Track not present in AccurateRip database
Copy OK

Track 2

Filename G:\02 – Breakout.wav

Peak level 97.7 %
Extraction speed 2.1 X
Track quality 100.0 %
Test CRC CBCA1D30
Copy CRC CBCA1D30
Track not present in AccurateRip database
Copy OK

Track 3

Filename G:\03 – Learn To Fly.wav

Peak level 94.6 %
Extraction speed 2.4 X
Track quality 100.0 %
Test CRC DCF8AEFF
Copy CRC DCF8AEFF
Track not present in AccurateRip database
Copy OK

Track 4

Filename G:\04 – Gimme Stitches.wav

Peak level 94.6 %
Extraction speed 2.5 X
Track quality 100.0 %
Test CRC CBF77CDE
Copy CRC CBF77CDE
Track not present in AccurateRip database
Copy OK

Track 5

Filename G:\05 – Generator.wav

Peak level 97.0 %
Extraction speed 2.2 X
Track quality 99.9 %
Test CRC BC452006
Copy CRC BC452006
Track not present in AccurateRip database
Copy OK

Track 6

Filename G:\06 – Aurora.wav

Pre-gap length 0:00:01.66

Peak level 94.6 %
Extraction speed 3.0 X
Track quality 100.0 %
Test CRC 663602C4
Copy CRC 663602C4
Track not present in AccurateRip database
Copy OK

Track 7

Filename G:\07 – Live-In Skin.wav

Pre-gap length 0:00:01.37

Peak level 95.0 %
Extraction speed 2.4 X
Track quality 99.9 %
Test CRC 22ACE730
Copy CRC 22ACE730
Track not present in AccurateRip database
Copy OK

Track 8

Filename G:\08 – Next Year.wav

Peak level 95.7 %
Extraction speed 3.2 X
Track quality 100.0 %
Test CRC 7C2079C5
Copy CRC 7C2079C5
Track not present in AccurateRip database
Copy OK

Track 9

Filename G:\09 – Headwires.wav

Pre-gap length 0:00:01.56

Peak level 98.2 %
Extraction speed 2.7 X
Track quality 99.9 %
Test CRC 4B081AA2
Copy CRC 4B081AA2
Track not present in AccurateRip database
Copy OK

Track 10

Filename G:\10 – Ain’t It The Life.wav

Peak level 95.7 %
Extraction speed 3.5 X
Track quality 100.0 %
Test CRC 88BA2853
Copy CRC 88BA2853
Track not present in AccurateRip database
Copy OK

Track 11

Filename G:\11 – M.I.A..wav

Peak level 97.7 %
Extraction speed 3.6 X
Track quality 100.0 %
Test CRC 42829D57
Copy CRC 42829D57
Track not present in AccurateRip database
Copy OK

Track 12

Filename G:\12 – Fraternity (Bonus Track).wav

Pre-gap length 0:00:03.00

Peak level 98.6 %
Extraction speed 3.5 X
Track quality 100.0 %
Test CRC 51E0EB34
Copy CRC 51E0EB34
Track not present in AccurateRip database
Copy OK

None of the tracks are present in the AccurateRip database

No errors occurred

End of status report

REM GENRE Rock
REM DATE 1999
REM DISCID BE0F3E0D
REM COMMENT “ExactAudioCopy v1.0b1”
PERFORMER “Foo Fighters”
TITLE “There Is Nothing Left To Lose Japan (BVCM-35131)”
FILE “01 – Stacked Actors.wav” WAVE
TRACK 01 AUDIO
TITLE “Stacked Actors”
PERFORMER “Foo Fighters”
INDEX 01 00:00:00
FILE “02 – Breakout.wav” WAVE
TRACK 02 AUDIO
TITLE “Breakout”
PERFORMER “Foo Fighters”
INDEX 01 00:00:00
FILE “03 – Learn To Fly.wav” WAVE
TRACK 03 AUDIO
TITLE “Learn To Fly”
PERFORMER “Foo Fighters”
INDEX 01 00:00:00
FILE “04 – Gimme Stitches.wav” WAVE
TRACK 04 AUDIO
TITLE “Gimme Stitches”
PERFORMER “Foo Fighters”
INDEX 01 00:00:00
FILE “05 – Generator.wav” WAVE
TRACK 05 AUDIO
TITLE “Generator”
PERFORMER “Foo Fighters”
INDEX 01 00:00:00
TRACK 06 AUDIO
TITLE “Aurora”
PERFORMER “Foo Fighters”
INDEX 00 03:47:60
FILE “06 – Aurora.wav” WAVE
INDEX 01 00:00:00
TRACK 07 AUDIO
TITLE “Live-In Skin”
PERFORMER “Foo Fighters”
INDEX 00 05:49:60
FILE “07 – Live-In Skin.wav” WAVE
INDEX 01 00:00:00
FILE “08 – Next Year.wav” WAVE
TRACK 08 AUDIO
TITLE “Next Year”
PERFORMER “Foo Fighters”
INDEX 01 00:00:00
TRACK 09 AUDIO
TITLE “Headwires”
PERFORMER “Foo Fighters”
INDEX 00 04:36:43
FILE “09 – Headwires.wav” WAVE
INDEX 01 00:00:00
FILE “10 – Ain’t It The Life.wav” WAVE
TRACK 10 AUDIO
TITLE “Ain’t It The Life”
PERFORMER “Foo Fighters”
INDEX 01 00:00:00
FILE “11 – M.I.A..wav” WAVE
TRACK 11 AUDIO
TITLE “M.I.A.”
PERFORMER “Foo Fighters”
INDEX 01 00:00:00
TRACK 12 AUDIO
TITLE “Fraternity (Bonus Track)”
PERFORMER “Foo Fighters”
INDEX 00 04:03:25
FILE “12 – Fraternity (Bonus Track).wav” WAVE
INDEX 01 00:00:00
TRACK 13 MODEx/2xxx
TITLE “Track13”
PERFORMER “Foo Fighters”
INDEX 00 03:10:00


Leave a Reply

Your email address will not be published. Required fields are marked *

This site uses Akismet to reduce spam. Learn how your comment data is processed.