Foo Fighters – The Colour And The Shape




Artist: Foo Fighters
Year: 1997
Genre: Rock
Notes: Discogs
Add. Notes:
Cover incl.: Yes
Encoder: FLAC
Bitrate: ~1000 kBit/s (44.1 kHz/16 Bit/s)
Log & Cue incl.: Yes
Size: 318,73 MB
Password: “slam” (without ” “)


All Downloads/Hosters are compatible

Download 1
Turbobit.net
NitroFlare.com
KatFile.com
Rapidgator.net
Download 2
Turbobit.net
NitroFlare.com
KatFile.com
Rapidgator.net

Tracklist:

1 - Doll - 1:23
2 - Monkey Wrench - 3:51
3 - Hey, Johnny Park! - 4:08
4 - My Poor Brain - 3:34
5 - Wind Up - 2:31
6 - Up In Arms - 2:15
7 - My Hero - 4:20
8 - See You - 2:27
9 - Enough Space - 2:36
10 - February Stars - 4:49
11 - Everlong - 4:10
12 - Walking After You - 5:04
13 - New Way Home - 5:40

EAC-Log, CUE-Sheed & NFO:

Click to open spoiler
Exact Audio Copy V1.0 beta 1 from 15. November 2010

EAC extraction logfile from 2. January 2011, 10:52

Foo Fighters / The Colour And The Shape EU (82876 55495 2)

Used drive : HP DVD Writer 1070d Adapter: 2 ID: 0

Read mode : Secure
Utilize accurate stream : Yes
Defeat audio cache : Yes
Make use of C2 pointers : No

Read offset correction : 6
Overread into Lead-In and Lead-Out : No
Fill up missing offset samples with silence : Yes
Delete leading and trailing silent blocks : No
Null samples used in CRC calculations : Yes
Used interface : Native Win32 interface for Win NT & 2000
Gap handling : Appended to previous track

Used output format : User Defined Encoder
Selected bitrate : 896 kBit/s
Quality : High
Add ID3 tag : No
Command line compressor : C:\Program Files\Exact Audio Copy\flac.exe
Additional command line options : -8 -V -T “ARTIST=%a” -T “TITLE=%t” -T “ALBUM=%g” -T “DATE=%y” -T “TRACKNUMBER=%n” -T “GENRE=%m” -T “COMMENT=EAC FLAC -8” %s

TOC of the extracted CD

Track | Start | Length | Start sector | End sector
———————————————————
1 | 0:00.00 | 1:23.30 | 0 | 6254
2 | 1:23.30 | 3:51.32 | 6255 | 23611
3 | 5:14.62 | 4:08.33 | 23612 | 42244
4 | 9:23.20 | 3:33.27 | 42245 | 58246
5 | 12:56.47 | 2:32.05 | 58247 | 69651
6 | 15:28.52 | 2:15.48 | 69652 | 79824
7 | 17:44.25 | 4:20.00 | 79825 | 99324
8 | 22:04.25 | 2:26.52 | 99325 | 110326
9 | 24:31.02 | 2:37.23 | 110327 | 122124
10 | 27:08.25 | 4:49.17 | 122125 | 143816
11 | 31:57.42 | 4:10.50 | 143817 | 162616
12 | 36:08.17 | 5:03.58 | 162617 | 185399
13 | 41:12.00 | 5:40.10 | 185400 | 210909

Track 1

Filename G:\01 – Doll.wav

Pre-gap length 0:00:02.00

Peak level 92.5 %
Extraction speed 1.4 X
Track quality 100.0 %
Test CRC C463BF4B
Copy CRC C463BF4B
Accurately ripped (confidence 44) [A85B5A34]
Copy OK

Track 2

Filename G:\02 – Monkey Wrench.wav

Peak level 99.9 %
Extraction speed 1.7 X
Track quality 99.9 %
Test CRC F0B84C9D
Copy CRC F0B84C9D
Accurately ripped (confidence 44) [AC8AE9E9]
Copy OK

Track 3

Filename G:\03 – Hey, Johnny Park!.wav

Pre-gap length 0:00:00.26

Peak level 97.9 %
Extraction speed 2.1 X
Track quality 100.0 %
Test CRC AF634AF3
Copy CRC AF634AF3
Accurately ripped (confidence 44) [6187C5A6]
Copy OK

Track 4

Filename G:\04 – My Poor Brain.wav

Peak level 98.0 %
Extraction speed 2.2 X
Track quality 100.0 %
Test CRC 88CD1576
Copy CRC 88CD1576
Accurately ripped (confidence 44) [7777A7EB]
Copy OK

Track 5

Filename G:\05 – Wind Up.wav

Peak level 97.9 %
Extraction speed 1.8 X
Track quality 99.9 %
Test CRC 84E71C01
Copy CRC 84E71C01
Accurately ripped (confidence 44) [C9E414DA]
Copy OK

Track 6

Filename G:\06 – Up In Arms.wav

Pre-gap length 0:00:01.42

Peak level 98.5 %
Extraction speed 2.2 X
Track quality 100.0 %
Test CRC 92F12E71
Copy CRC 92F12E71
Accurately ripped (confidence 44) [84921E55]
Copy OK

Track 7

Filename G:\07 – My Hero.wav

Pre-gap length 0:00:00.33

Peak level 98.0 %
Extraction speed 2.2 X
Track quality 99.9 %
Test CRC 9C4436E5
Copy CRC 9C4436E5
Accurately ripped (confidence 43) [9D813CF9]
Copy OK

Track 8

Filename G:\08 – See You.wav

Peak level 98.0 %
Extraction speed 2.5 X
Track quality 100.0 %
Test CRC DA24A805
Copy CRC DA24A805
Accurately ripped (confidence 44) [17227462]
Copy OK

Track 9

Filename G:\09 – Enough Space.wav

Peak level 98.0 %
Extraction speed 2.6 X
Track quality 100.0 %
Test CRC 29859D7B
Copy CRC 29859D7B
Accurately ripped (confidence 44) [ADE4F8B7]
Copy OK

Track 10

Filename G:\10 – February Stars.wav

Pre-gap length 0:00:01.00

Peak level 98.0 %
Extraction speed 2.5 X
Track quality 99.9 %
Test CRC 59DDDC09
Copy CRC 59DDDC09
Accurately ripped (confidence 44) [2A164622]
Copy OK

Track 11

Filename G:\11 – Everlong.wav

Peak level 98.0 %
Extraction speed 3.1 X
Track quality 100.0 %
Test CRC 9056AD76
Copy CRC 9056AD76
Accurately ripped (confidence 43) [7D4A41A5]
Copy OK

Track 12

Filename G:\12 – Walking After You.wav

Pre-gap length 0:00:00.89

Peak level 97.8 %
Extraction speed 3.3 X
Track quality 100.0 %
Test CRC 75A56412
Copy CRC 75A56412
Accurately ripped (confidence 43) [36274813]
Copy OK

Track 13

Filename G:\13 – New Way Home.wav

Peak level 98.0 %
Extraction speed 3.5 X
Track quality 100.0 %
Test CRC CEF840A0
Copy CRC CEF840A0
Accurately ripped (confidence 43) [A6BEFC00]
Copy OK

All tracks accurately ripped

No errors occurred

End of status report

REM GENRE Rock
REM DATE 1997
REM DISCID AC0AFC0D
REM COMMENT “ExactAudioCopy v1.0b1”
PERFORMER “Foo Fighters”
TITLE “The Colour And The Shape EU (82876 55495 2)”
FILE “01 – Doll.wav” WAVE
TRACK 01 AUDIO
TITLE “Doll”
PERFORMER “Foo Fighters”
INDEX 01 00:00:00
FILE “02 – Monkey Wrench.wav” WAVE
TRACK 02 AUDIO
TITLE “Monkey Wrench”
PERFORMER “Foo Fighters”
INDEX 01 00:00:00
TRACK 03 AUDIO
TITLE “Hey, Johnny Park!”
PERFORMER “Foo Fighters”
INDEX 00 03:51:12
FILE “03 – Hey, Johnny Park!.wav” WAVE
INDEX 01 00:00:00
FILE “04 – My Poor Brain.wav” WAVE
TRACK 04 AUDIO
TITLE “My Poor Brain”
PERFORMER “Foo Fighters”
INDEX 01 00:00:00
FILE “05 – Wind Up.wav” WAVE
TRACK 05 AUDIO
TITLE “Wind Up”
PERFORMER “Foo Fighters”
INDEX 01 00:00:00
TRACK 06 AUDIO
TITLE “Up In Arms”
PERFORMER “Foo Fighters”
INDEX 00 02:30:48
FILE “06 – Up In Arms.wav” WAVE
INDEX 01 00:00:00
TRACK 07 AUDIO
TITLE “My Hero”
PERFORMER “Foo Fighters”
INDEX 00 02:15:23
FILE “07 – My Hero.wav” WAVE
INDEX 01 00:00:00
FILE “08 – See You.wav” WAVE
TRACK 08 AUDIO
TITLE “See You”
PERFORMER “Foo Fighters”
INDEX 01 00:00:00
FILE “09 – Enough Space.wav” WAVE
TRACK 09 AUDIO
TITLE “Enough Space”
PERFORMER “Foo Fighters”
INDEX 01 00:00:00
TRACK 10 AUDIO
TITLE “February Stars”
PERFORMER “Foo Fighters”
INDEX 00 02:36:23
FILE “10 – February Stars.wav” WAVE
INDEX 01 00:00:00
FILE “11 – Everlong.wav” WAVE
TRACK 11 AUDIO
TITLE “Everlong”
PERFORMER “Foo Fighters”
INDEX 01 00:00:00
TRACK 12 AUDIO
TITLE “Walking After You”
PERFORMER “Foo Fighters”
INDEX 00 04:09:58
FILE “12 – Walking After You.wav” WAVE
INDEX 01 00:00:00
FILE “13 – New Way Home.wav” WAVE
TRACK 13 AUDIO
TITLE “New Way Home”
PERFORMER “Foo Fighters”
INDEX 01 00:00:00


Leave a Reply

Your email address will not be published. Required fields are marked *

This site uses Akismet to reduce spam. Learn how your comment data is processed.