Foo Fighters – The Colour And The Shape (Remastered)




[Total: 0    Average: 0/5]

Artist: Foo Fighters
Year: 1997/2007
Genre: Rock
Notes: Discogs
Add. Notes: Remastered
Cover incl.: Yes
Encoder: FLAC
Bitrate: ~1000 kBit/s (44.1 kHz/16 Bit/s)
Log & Cue incl.: Yes
Size: 498 MB
Password: “slam” (without ” “)


All Downloads/Hosters are compatible

Download 1
KatFile.com
Turbobit.net
FileFactory.com
Rapidgator.net
Download 2
KatFile.com
Turbobit.net
FileFactory.com
Rapidgator.net

Tracklist:

1 - Doll - 1:23
2 - Monkey Wrench - 3:51
3 - Hey, Johnny Park! - 4:08
4 - My Poor Brain - 3:33
5 - Wind Up - 2:30
6 - Up In Arms - 2:15
7 - My Hero - 4:20
8 - See You - 2:27
9 - Enough Space - 2:36
10 - February Stars - 4:49
11 - Everlong - 4:10
12 - Walking After You - 5:04
13 - New Way Home - 5:40
Bonus Tracks
14 - Requiem - 3:33
15 - Drive Me Wild - 3:14
16 - Down In The Park - 4:09
17 - Baker Street - 5:37
18 - Dear Lover - 4:32
19 - The Colour And The Shape - 
3:22

EAC-Log, CUE-Sheed & NFO:

Click to open spoiler
Exact Audio Copy V1.0 beta 1 from 15. November 2010

EAC extraction logfile from 3. January 2011, 11:50

Foo Fighters / The Colour And The Shape 10th Anniversary Special Edition EU (88697 09183 2)

Used drive : HP DVD Writer 1070d Adapter: 2 ID: 0

Read mode : Secure
Utilize accurate stream : Yes
Defeat audio cache : Yes
Make use of C2 pointers : No

Read offset correction : 6
Overread into Lead-In and Lead-Out : No
Fill up missing offset samples with silence : Yes
Delete leading and trailing silent blocks : No
Null samples used in CRC calculations : Yes
Used interface : Native Win32 interface for Win NT & 2000
Gap handling : Appended to previous track

Used output format : User Defined Encoder
Selected bitrate : 896 kBit/s
Quality : High
Add ID3 tag : No
Command line compressor : C:\Program Files\Exact Audio Copy\flac.exe
Additional command line options : -8 -V -T “ARTIST=%a” -T “TITLE=%t” -T “ALBUM=%g” -T “DATE=%y” -T “TRACKNUMBER=%n” -T “GENRE=%m” -T “COMMENT=EAC FLAC -8” %s

TOC of the extracted CD

Track | Start | Length | Start sector | End sector
———————————————————
1 | 0:00.00 | 1:24.17 | 0 | 6316
2 | 1:24.17 | 3:51.32 | 6317 | 23673
3 | 5:15.49 | 4:08.32 | 23674 | 42305
4 | 9:24.06 | 3:33.32 | 42306 | 58312
5 | 12:57.38 | 2:31.68 | 58313 | 69705
6 | 15:29.31 | 2:15.60 | 69706 | 79890
7 | 17:45.16 | 4:19.60 | 79891 | 99375
8 | 22:05.01 | 2:26.60 | 99376 | 110385
9 | 24:31.61 | 2:37.05 | 110386 | 122165
10 | 27:08.66 | 4:49.21 | 122166 | 143861
11 | 31:58.12 | 4:10.12 | 143862 | 162623
12 | 36:08.24 | 5:04.13 | 162624 | 185436
13 | 41:12.37 | 5:44.10 | 185437 | 211246
14 | 46:56.47 | 3:33.34 | 211247 | 227255
15 | 50:30.06 | 3:13.74 | 227256 | 241804
16 | 53:44.05 | 4:08.63 | 241805 | 260467
17 | 57:52.68 | 5:37.28 | 260468 | 285770
18 | 63:30.21 | 4:32.14 | 285771 | 306184
19 | 68:02.35 | 3:23.57 | 306185 | 321466

Track 1

Filename G:\01 – Doll.wav

Pre-gap length 0:00:02.00

Peak level 98.4 %
Extraction speed 1.5 X
Track quality 100.0 %
Test CRC 434F8CD8
Copy CRC 434F8CD8
Accurately ripped (confidence 75) [FA82AA89]
Copy OK

Track 2

Filename G:\02 – Monkey Wrench.wav

Peak level 100.0 %
Extraction speed 1.8 X
Track quality 99.9 %
Test CRC DA0020FE
Copy CRC DA0020FE
Accurately ripped (confidence 75) [3DDB692D]
Copy OK

Track 3

Filename G:\03 – Hey, Johnny Park!.wav

Peak level 100.0 %
Extraction speed 2.3 X
Track quality 100.0 %
Test CRC B552E9CF
Copy CRC B552E9CF
Accurately ripped (confidence 76) [7E064EC6]
Copy OK

Track 4

Filename G:\04 – My Poor Brain.wav

Peak level 100.0 %
Extraction speed 2.4 X
Track quality 100.0 %
Test CRC 5C3AFAA8
Copy CRC 5C3AFAA8
Accurately ripped (confidence 76) [E94D77DD]
Copy OK

Track 5

Filename G:\05 – Wind Up.wav

Peak level 100.0 %
Extraction speed 2.4 X
Track quality 100.0 %
Test CRC 03D2181E
Copy CRC 03D2181E
Accurately ripped (confidence 76) [2E32B2DB]
Copy OK

Track 6

Filename G:\06 – Up In Arms.wav

Pre-gap length 0:00:01.26

Peak level 100.0 %
Extraction speed 1.8 X
Track quality 99.9 %
Test CRC 84592C58
Copy CRC 84592C58
Accurately ripped (confidence 76) [B7E4D245]
Copy OK

Track 7

Filename G:\07 – My Hero.wav

Pre-gap length 0:00:00.32

Peak level 100.0 %
Extraction speed 2.8 X
Track quality 100.0 %
Test CRC 1F55670C
Copy CRC 1F55670C
Accurately ripped (confidence 76) [9B7FE708]
Copy OK

Track 8

Filename G:\08 – See You.wav

Peak level 100.0 %
Extraction speed 1.9 X
Track quality 99.9 %
Test CRC 1203C9BF
Copy CRC 1203C9BF
Accurately ripped (confidence 76) [44591A8A]
Copy OK

Track 9

Filename G:\09 – Enough Space.wav

Peak level 100.0 %
Extraction speed 2.0 X
Track quality 99.9 %
Test CRC 7AA261AA
Copy CRC 7AA261AA
Accurately ripped (confidence 76) [BAC3B16F]
Copy OK

Track 10

Filename G:\10 – February Stars.wav

Pre-gap length 0:00:00.78

Peak level 100.0 %
Extraction speed 3.2 X
Track quality 100.0 %
Test CRC 2E840CDA
Copy CRC 2E840CDA
Accurately ripped (confidence 76) [28F73E0A]
Copy OK

Track 11

Filename G:\11 – Everlong.wav

Peak level 100.0 %
Extraction speed 3.2 X
Track quality 100.0 %
Test CRC C52EC7F6
Copy CRC C52EC7F6
Accurately ripped (confidence 76) [1BF32A78]
Copy OK

Track 12

Filename G:\12 – Walking After You.wav

Peak level 99.2 %
Extraction speed 2.8 X
Track quality 99.9 %
Test CRC 6F9DB65A
Copy CRC 6F9DB65A
Accurately ripped (confidence 76) [AA5C11FE]
Copy OK

Track 13

Filename G:\13 – New Way Home.wav

Peak level 100.0 %
Extraction speed 3.7 X
Track quality 100.0 %
Test CRC 31ABA91B
Copy CRC 31ABA91B
Accurately ripped (confidence 76) [724E4A5C]
Copy OK

Track 14

Filename G:\14 – Requiem (Bonus Track).wav

Pre-gap length 0:00:03.92

Peak level 99.5 %
Extraction speed 3.6 X
Track quality 100.0 %
Test CRC 1DBD7834
Copy CRC 1DBD7834
Accurately ripped (confidence 76) [B9171473]
Copy OK

Track 15

Filename G:\15 – Drive Me Wild (Bonus Track).wav

Peak level 99.0 %
Extraction speed 3.6 X
Track quality 100.0 %
Test CRC 3BE54C18
Copy CRC 3BE54C18
Accurately ripped (confidence 76) [5E98568C]
Copy OK

Track 16

Filename G:\16 – Down In The Park (Bonus Track).wav

Peak level 100.0 %
Extraction speed 3.9 X
Track quality 100.0 %
Test CRC 94584E23
Copy CRC 94584E23
Accurately ripped (confidence 76) [E4592A60]
Copy OK

Track 17

Filename G:\17 – Baker Street (Bonus Track).wav

Peak level 100.0 %
Extraction speed 3.2 X
Track quality 99.9 %
Test CRC 6E729D67
Copy CRC 6E729D67
Accurately ripped (confidence 76) [3F79010A]
Copy OK

Track 18

Filename G:\18 – Dear Lover (Bonus Track).wav

Peak level 99.2 %
Extraction speed 4.2 X
Track quality 100.0 %
Test CRC F628FE8C
Copy CRC F628FE8C
Accurately ripped (confidence 76) [8755B349]
Copy OK

Track 19

Filename G:\19 – The Colour And The Shape (Bonus Track).wav

Peak level 100.0 %
Extraction speed 4.1 X
Track quality 100.0 %
Test CRC 5CFE4A64
Copy CRC 5CFE4A64
Accurately ripped (confidence 75) [80D2A7C1]
Copy OK

All tracks accurately ripped

No errors occurred

End of status report

REM GENRE Rock
REM DATE 2007
REM DISCID 0410BE13
REM COMMENT “ExactAudioCopy v1.0b1”
PERFORMER “Foo Fighters”
TITLE “The Colour And The Shape 10th Anniversary Special Edition EU (88697 09183 2)”
FILE “01 – Doll.wav” WAVE
TRACK 01 AUDIO
TITLE “Doll”
PERFORMER “Foo Fighters”
INDEX 01 00:00:00
FILE “02 – Monkey Wrench.wav” WAVE
TRACK 02 AUDIO
TITLE “Monkey Wrench”
PERFORMER “Foo Fighters”
INDEX 01 00:00:00
FILE “03 – Hey, Johnny Park!.wav” WAVE
TRACK 03 AUDIO
TITLE “Hey, Johnny Park!”
PERFORMER “Foo Fighters”
INDEX 01 00:00:00
FILE “04 – My Poor Brain.wav” WAVE
TRACK 04 AUDIO
TITLE “My Poor Brain”
PERFORMER “Foo Fighters”
INDEX 01 00:00:00
FILE “05 – Wind Up.wav” WAVE
TRACK 05 AUDIO
TITLE “Wind Up”
PERFORMER “Foo Fighters”
INDEX 01 00:00:00
TRACK 06 AUDIO
TITLE “Up In Arms”
PERFORMER “Foo Fighters”
INDEX 00 02:30:48
FILE “06 – Up In Arms.wav” WAVE
INDEX 01 00:00:00
TRACK 07 AUDIO
TITLE “My Hero”
PERFORMER “Foo Fighters”
INDEX 00 02:15:36
FILE “07 – My Hero.wav” WAVE
INDEX 01 00:00:00
FILE “08 – See You.wav” WAVE
TRACK 08 AUDIO
TITLE “See You”
PERFORMER “Foo Fighters”
INDEX 01 00:00:00
FILE “09 – Enough Space.wav” WAVE
TRACK 09 AUDIO
TITLE “Enough Space”
PERFORMER “Foo Fighters”
INDEX 01 00:00:00
TRACK 10 AUDIO
TITLE “February Stars”
PERFORMER “Foo Fighters”
INDEX 00 02:36:21
FILE “10 – February Stars.wav” WAVE
INDEX 01 00:00:00
FILE “11 – Everlong.wav” WAVE
TRACK 11 AUDIO
TITLE “Everlong”
PERFORMER “Foo Fighters”
INDEX 01 00:00:00
FILE “12 – Walking After You.wav” WAVE
TRACK 12 AUDIO
TITLE “Walking After You”
PERFORMER “Foo Fighters”
INDEX 01 00:00:00
FILE “13 – New Way Home.wav” WAVE
TRACK 13 AUDIO
TITLE “New Way Home”
PERFORMER “Foo Fighters”
INDEX 01 00:00:00
TRACK 14 AUDIO
TITLE “Requiem (Bonus Track)”
PERFORMER “Foo Fighters”
INDEX 00 05:40:16
FILE “14 – Requiem (Bonus Track).wav” WAVE
INDEX 01 00:00:00
FILE “15 – Drive Me Wild (Bonus Track).wav” WAVE
TRACK 15 AUDIO
TITLE “Drive Me Wild (Bonus Track)”
PERFORMER “Foo Fighters”
INDEX 01 00:00:00
FILE “16 – Down In The Park (Bonus Track).wav” WAVE
TRACK 16 AUDIO
TITLE “Down In The Park (Bonus Track)”
PERFORMER “Foo Fighters”
INDEX 01 00:00:00
FILE “17 – Baker Street (Bonus Track).wav” WAVE
TRACK 17 AUDIO
TITLE “Baker Street (Bonus Track)”
PERFORMER “Foo Fighters”
INDEX 01 00:00:00
FILE “18 – Dear Lover (Bonus Track).wav” WAVE
TRACK 18 AUDIO
TITLE “Dear Lover (Bonus Track)”
PERFORMER “Foo Fighters”
INDEX 01 00:00:00
FILE “19 – The Colour And The Shape (Bonus Track).wav” WAVE
TRACK 19 AUDIO
TITLE “The Colour And The Shape (Bonus Track)”
PERFORMER “Foo Fighters”
INDEX 01 00:00:00


Spread the Download

Leave a Reply

Your email address will not be published. Required fields are marked *

Enter the text from the image below
 

This site uses Akismet to reduce spam. Learn how your comment data is processed.