Foo Fighters – The Colour And The Shape (Japanese Edition)




Artist: Foo Fighters
Year: 1997/2007
Genre: Rock
Notes: Discogs
Add. Notes: Japanese Edition
Cover incl.: Yes
Encoder: FLAC
Bitrate: ~1000 kBit/s (44.1 kHz/16 Bit/s)
Log & Cue incl.: Yes
Size: 347,7 MB
Password: “slam” (without ” “)


All Downloads/Hosters are compatible

Download 1
Turbobit.net
NitroFlare.com
KatFile.com
Rapidgator.net
Download 2
Turbobit.net
NitroFlare.com
KatFile.com
Rapidgator.net

Tracklist:

1 - Doll - 1:23
2 - Monkey Wrench - 3:51
3 - Hey, Johnny Park! - 4:08
4 - My Poor Brain - 3:33
5 - Wind Up - 2:32
6 - Up In Arms - 2:15
7 - My Hero - 4:20
8 - See You - 2:26
9 - Enough Space - 2:37
10 - February Stars - 4:49
11 - Everlong - 4:10
12 - Walking After You - 5:03
13 - New Way Home - 5:40
Bonus Track
14 - Dear Lover - 4:32

EAC-Log, CUE-Sheed & NFO:

Click to open spoiler
Exact Audio Copy V1.0 beta 1 from 15. November 2010

EAC extraction logfile from 14. January 2011, 17:21

Foo Fighters / The Colour And The Shape Japan (BVCM-35130)

Used drive : HP DVD Writer 1070d Adapter: 2 ID: 0

Read mode : Secure
Utilize accurate stream : Yes
Defeat audio cache : Yes
Make use of C2 pointers : No

Read offset correction : 6
Overread into Lead-In and Lead-Out : No
Fill up missing offset samples with silence : Yes
Delete leading and trailing silent blocks : No
Null samples used in CRC calculations : Yes
Used interface : Native Win32 interface for Win NT & 2000
Gap handling : Appended to previous track

Used output format : User Defined Encoder
Selected bitrate : 896 kBit/s
Quality : High
Add ID3 tag : No
Command line compressor : C:\Program Files\Exact Audio Copy\flac.exe
Additional command line options : -8 -V -T “ARTIST=%a” -T “TITLE=%t” -T “ALBUM=%g” -T “DATE=%y” -T “TRACKNUMBER=%n” -T “GENRE=%m” -T “COMMENT=EAC FLAC -8” %s

TOC of the extracted CD

Track | Start | Length | Start sector | End sector
———————————————————
1 | 0:00.00 | 1:24.17 | 0 | 6316
2 | 1:24.17 | 3:51.35 | 6317 | 23676
3 | 5:15.52 | 4:08.30 | 23677 | 42306
4 | 9:24.07 | 3:33.28 | 42307 | 58309
5 | 12:57.35 | 2:31.70 | 58310 | 69704
6 | 15:29.30 | 2:15.67 | 69705 | 79896
7 | 17:45.22 | 4:20.00 | 79897 | 99396
8 | 22:05.22 | 2:26.53 | 99397 | 110399
9 | 24:32.00 | 2:37.02 | 110400 | 122176
10 | 27:09.02 | 4:49.35 | 122177 | 143886
11 | 31:58.37 | 4:10.38 | 143887 | 162674
12 | 36:09.00 | 5:03.62 | 162675 | 185461
13 | 41:12.62 | 5:41.38 | 185462 | 211074
14 | 46:54.25 | 4:33.20 | 211075 | 231569

Track 1

Filename G:\01 – Doll.wav

Pre-gap length 0:00:02.00

Peak level 92.5 %
Extraction speed 1.3 X
Track quality 100.0 %
Test CRC 25CAA975
Copy CRC 25CAA975
Copy OK

Track 2

Filename G:\02 – Monkey Wrench.wav

Peak level 99.9 %
Extraction speed 1.8 X
Track quality 100.0 %
Test CRC ABC86901
Copy CRC ABC86901
Copy OK

Track 3

Filename G:\03 – Hey, Johnny Park!.wav

Peak level 97.9 %
Extraction speed 1.8 X
Track quality 99.9 %
Test CRC 70D793DD
Copy CRC 70D793DD
Copy OK

Track 4

Filename G:\04 – My Poor Brain.wav

Peak level 98.0 %
Extraction speed 2.2 X
Track quality 100.0 %
Test CRC 2D763700
Copy CRC 2D763700
Copy OK

Track 5

Filename G:\05 – Wind Up.wav

Peak level 97.9 %
Extraction speed 2.2 X
Track quality 100.0 %
Test CRC E802C154
Copy CRC E802C154
Copy OK

Track 6

Filename G:\06 – Up In Arms.wav

Pre-gap length 0:00:00.80

Peak level 98.5 %
Extraction speed 2.3 X
Track quality 100.0 %
Test CRC 10DAE1EF
Copy CRC 10DAE1EF
Copy OK

Track 7

Filename G:\07 – My Hero.wav

Peak level 98.0 %
Extraction speed 2.2 X
Track quality 99.9 %
Test CRC 17721CE5
Copy CRC 17721CE5
Copy OK

Track 8

Filename G:\08 – See You.wav

Peak level 98.0 %
Extraction speed 2.5 X
Track quality 100.0 %
Test CRC 2D212A7A
Copy CRC 2D212A7A
Copy OK

Track 9

Filename G:\09 – Enough Space.wav

Peak level 98.0 %
Extraction speed 2.6 X
Track quality 100.0 %
Test CRC 51E87743
Copy CRC 51E87743
Copy OK

Track 10

Filename G:\10 – February Stars.wav

Pre-gap length 0:00:00.66

Peak level 98.0 %
Extraction speed 3.0 X
Track quality 100.0 %
Test CRC 5441E5F6
Copy CRC 5441E5F6
Copy OK

Track 11

Filename G:\11 – Everlong.wav

Peak level 98.0 %
Extraction speed 3.1 X
Track quality 100.0 %
Test CRC CCC11C27
Copy CRC CCC11C27
Copy OK

Track 12

Filename G:\12 – Walking After You.wav

Peak level 97.8 %
Extraction speed 2.7 X
Track quality 99.9 %
Test CRC 293694B6
Copy CRC 293694B6
Copy OK

Track 13

Filename G:\13 – New Way Home.wav

Peak level 98.0 %
Extraction speed 3.5 X
Track quality 100.0 %
Test CRC 98455928
Copy CRC 98455928
Copy OK

Track 14

Filename G:\14 – Dear Lover (Bonus Track).wav

Pre-gap length 0:00:01.17

Peak level 98.0 %
Extraction speed 2.7 X
Track quality 99.9 %
Test CRC 60CEA5C6
Copy CRC 60CEA5C6
Copy OK

No errors occurred

End of status report

REM GENRE Rock
REM DATE 1997
REM DISCID BF0C0F0E
REM COMMENT “ExactAudioCopy v1.0b1”
PERFORMER “Foo Fighters”
TITLE “The Colour And The Shape Japan (BVCM-35130)”
FILE “01 – Doll.wav” WAVE
TRACK 01 AUDIO
TITLE “Doll”
PERFORMER “Foo Fighters”
INDEX 01 00:00:00
FILE “02 – Monkey Wrench.wav” WAVE
TRACK 02 AUDIO
TITLE “Monkey Wrench”
PERFORMER “Foo Fighters”
INDEX 01 00:00:00
FILE “03 – Hey, Johnny Park!.wav” WAVE
TRACK 03 AUDIO
TITLE “Hey, Johnny Park!”
PERFORMER “Foo Fighters”
INDEX 01 00:00:00
FILE “04 – My Poor Brain.wav” WAVE
TRACK 04 AUDIO
TITLE “My Poor Brain”
PERFORMER “Foo Fighters”
INDEX 01 00:00:00
FILE “05 – Wind Up.wav” WAVE
TRACK 05 AUDIO
TITLE “Wind Up”
PERFORMER “Foo Fighters”
INDEX 01 00:00:00
TRACK 06 AUDIO
TITLE “Up In Arms”
PERFORMER “Foo Fighters”
INDEX 00 02:31:10
FILE “06 – Up In Arms.wav” WAVE
INDEX 01 00:00:00
FILE “07 – My Hero.wav” WAVE
TRACK 07 AUDIO
TITLE “My Hero”
PERFORMER “Foo Fighters”
INDEX 01 00:00:00
FILE “08 – See You.wav” WAVE
TRACK 08 AUDIO
TITLE “See You”
PERFORMER “Foo Fighters”
INDEX 01 00:00:00
FILE “09 – Enough Space.wav” WAVE
TRACK 09 AUDIO
TITLE “Enough Space”
PERFORMER “Foo Fighters”
INDEX 01 00:00:00
TRACK 10 AUDIO
TITLE “February Stars”
PERFORMER “Foo Fighters”
INDEX 00 02:36:27
FILE “10 – February Stars.wav” WAVE
INDEX 01 00:00:00
FILE “11 – Everlong.wav” WAVE
TRACK 11 AUDIO
TITLE “Everlong”
PERFORMER “Foo Fighters”
INDEX 01 00:00:00
FILE “12 – Walking After You.wav” WAVE
TRACK 12 AUDIO
TITLE “Walking After You”
PERFORMER “Foo Fighters”
INDEX 01 00:00:00
FILE “13 – New Way Home.wav” WAVE
TRACK 13 AUDIO
TITLE “New Way Home”
PERFORMER “Foo Fighters”
INDEX 01 00:00:00
TRACK 14 AUDIO
TITLE “Dear Lover (Bonus Track)”
PERFORMER “Foo Fighters”
INDEX 00 05:40:25
FILE “14 – Dear Lover (Bonus Track).wav” WAVE
INDEX 01 00:00:00


Leave a Reply

Your email address will not be published. Required fields are marked *

This site uses Akismet to reduce spam. Learn how your comment data is processed.