Foo Fighters – Sonic Highways




[Total: 0    Average: 0/5]

Artist: Foo Fighters
Year: 2014
Genre: Rock
Notes: Discogs
Add. Notes:
Cover incl.: No
Encoder: FLAC
Bitrate: ~1000 kBit/s (44.1 kHz/16 Bit/s)
Log & Cue incl.: Yes
Size: 289,06 MB
Password: “slam” (without ” “)


All Downloads/Hosters are compatible

Download 1
Share-online.biz
KatFile.com
Rapidgator.net
DoUploads.net
Download 2
Share-online.biz
KatFile.com
Rapidgator.net
DoUploads.net

Tracklist:

1  - Something From Nothing  - 4:48
2  - The Feast And The Famine  - 3:50
3  - Congregation  - 5:12
4  - What Did I Do? / God As My Witness  - 5:44
5  - Outside  - 5:15
6  - In The Clear  - 4:04
7  - Subterranean  - 6:08
8  - I Am A River  - 7:09

EAC-Log, CUE-Sheed & NFO:

Click to open spoiler
Exact Audio Copy V1.0 beta 3 from 29. August 2011

EAC extraction logfile from 28. November 2014, 12:53

Foo Fighters / Sonic Highways (US, 88843-09008-2)

Used drive : Optiarc BD RW BD-5300S Adapter: 3 ID: 1

Read mode : Secure
Utilize accurate stream : Yes
Defeat audio cache : Yes
Make use of C2 pointers : No

Read offset correction : 6
Overread into Lead-In and Lead-Out : No
Fill up missing offset samples with silence : Yes
Delete leading and trailing silent blocks : No
Null samples used in CRC calculations : Yes
Used interface : Native Win32 interface for Win NT & 2000
Gap handling : Appended to previous track

Used output format : User Defined Encoder
Selected bitrate : 128 kBit/s
Quality : High
Add ID3 tag : Yes
Command line compressor : C:\Program Files (x86)\Exact Audio Copy\Flac\flac.exe
Additional command line options : -V -8 -T “Genre=%genre%” -T “Artist=%artist%” -T “Title=%title%” -T “Album=%albumtitle%” -T “Date=%year%” -T “Tracknumber=%tracknr%” -T “Comment=%comment%” %source%

TOC of the extracted CD

Track | Start | Length | Start sector | End sector
———————————————————
1 | 0:00.00 | 4:48.34 | 0 | 21633
2 | 4:48.34 | 3:49.42 | 21634 | 38850
3 | 8:38.01 | 5:11.68 | 38851 | 62243
4 | 13:49.69 | 5:43.49 | 62244 | 88017
5 | 19:33.43 | 5:14.43 | 88018 | 111610
6 | 24:48.11 | 4:03.63 | 111611 | 129898
7 | 28:51.74 | 6:07.38 | 129899 | 157461
8 | 34:59.37 | 7:08.39 | 157462 | 189600

Track 1

Filename D:\01 – Something From Nothing.wav

Pre-gap length 0:00:02.00

Peak level 100.0 %
Extraction speed 2.3 X
Track quality 100.0 %
Test CRC F0D8EE8F
Copy CRC F0D8EE8F
Track not present in AccurateRip database
Copy OK

Track 2

Filename D:\02 – The Feast And The Famine.wav

Peak level 100.0 %
Extraction speed 2.5 X
Track quality 100.0 %
Test CRC A2F7C6DC
Copy CRC A2F7C6DC
Track not present in AccurateRip database
Copy OK

Track 3

Filename D:\03 – Congregation.wav

Peak level 100.0 %
Extraction speed 2.8 X
Track quality 100.0 %
Test CRC C3802DF0
Copy CRC C3802DF0
Track not present in AccurateRip database
Copy OK

Track 4

Filename D:\04 – What Did I Do,God As My Witness.wav

Peak level 100.0 %
Extraction speed 3.0 X
Track quality 100.0 %
Test CRC 3E26F919
Copy CRC 3E26F919
Track not present in AccurateRip database
Copy OK

Track 5

Filename D:\05 – Outside.wav

Peak level 99.9 %
Extraction speed 3.2 X
Track quality 100.0 %
Test CRC 89749E32
Copy CRC 89749E32
Track not present in AccurateRip database
Copy OK

Track 6

Filename D:\06 – In The Clear.wav

Peak level 100.0 %
Extraction speed 3.3 X
Track quality 100.0 %
Test CRC 025050F3
Copy CRC 025050F3
Track not present in AccurateRip database
Copy OK

Track 7

Filename D:\07 – Subterranean.wav

Peak level 100.0 %
Extraction speed 3.0 X
Track quality 99.9 %
Test CRC F2B3E641
Copy CRC F2B3E641
Track not present in AccurateRip database
Copy OK

Track 8

Filename D:\08 – I Am A River.wav

Peak level 99.5 %
Extraction speed 3.9 X
Track quality 100.0 %
Test CRC AF64EEFE
Copy CRC AF64EEFE
Track not present in AccurateRip database
Copy OK

None of the tracks are present in the AccurateRip database

No errors occurred

End of status report

==== Log checksum C2AB2ECEED75A713ED222F7367959B938098863BD1DF8217AA975A0E3CF4A5FB ====

REM GENRE Rock
REM DATE 2014
REM DISCID 4E09E008
REM COMMENT “ExactAudioCopy v1.0b3”
PERFORMER “Foo Fighters”
TITLE “Sonic Highways (US, 88843-09008-2)”
FILE “01 – Something From Nothing.wav” WAVE
TRACK 01 AUDIO
TITLE “Something From Nothing”
PERFORMER “Foo Fighters”
ISRC USRW31400002
INDEX 01 00:00:00
FILE “02 – The Feast And The Famine.wav” WAVE
TRACK 02 AUDIO
TITLE “The Feast And The Famine”
PERFORMER “Foo Fighters”
ISRC USRW31400003
INDEX 01 00:00:00
FILE “03 – Congregation.wav” WAVE
TRACK 03 AUDIO
TITLE “Congregation”
PERFORMER “Foo Fighters”
ISRC USRW31400004
INDEX 01 00:00:00
FILE “04 – What Did I Do,God As My Witness.wav” WAVE
TRACK 04 AUDIO
TITLE “What Did I Do?/God As My Witness”
PERFORMER “Foo Fighters”
ISRC USRW31400005
INDEX 01 00:00:00
FILE “05 – Outside.wav” WAVE
TRACK 05 AUDIO
TITLE “Outside”
PERFORMER “Foo Fighters”
ISRC USRW31400006
INDEX 01 00:00:00
FILE “06 – In The Clear.wav” WAVE
TRACK 06 AUDIO
TITLE “In The Clear”
PERFORMER “Foo Fighters”
ISRC USRW31400007
INDEX 01 00:00:00
FILE “07 – Subterranean.wav” WAVE
TRACK 07 AUDIO
TITLE “Subterranean”
PERFORMER “Foo Fighters”
ISRC USRW31400008
INDEX 01 00:00:00
FILE “08 – I Am A River.wav” WAVE
TRACK 08 AUDIO
TITLE “I Am A River”
PERFORMER “Foo Fighters”
ISRC USRW31400009
INDEX 01 00:00:00


Spread the Download

Leave a Reply

Your email address will not be published. Required fields are marked *

Enter the text from the image below
 

This site uses Akismet to reduce spam. Learn how your comment data is processed.