Foo Fighters – Skin And Bones




[Total: 0    Average: 0/5]

Artist: Foo Fighters
Year: 2006
Genre: Rock
Notes: Discogs
Add. Notes:
Cover incl.: Yes
Encoder: FLAC
Bitrate: ~900 kBit/s (44.1 kHz/16 Bit/s)
Log & Cue incl.: Yes
Size: 487,85 MB
Password: “slam” (without ” “)


All Downloads/Hosters are compatible

Download 1
Share-online.biz
KatFile.com
Rapidgator.net
NitroFlare.com
Download 2
Share-online.biz
KatFile.com
Rapidgator.net
NitroFlare.com

Tracklist:

1 - Razor - 6:48
2 - Over And Out - 5:56
3 - Walking After You - 5:18
4 - Marigold - 3:19
5 - My Hero - 4:51
6 - Next Year - 4:34
7 - Another Round - 4:55
8 - Big Me - 3:01
9 - Cold Day In The Sun - 3:26
10 - Skin And Bones - 4:00
11 - February Stars - 5:51
12 - Times Like These - 5:25
13 - Friend Of A Friend - 4:01
14 - Best Of You - 5:02
15 - Everlong - 6:37

EAC-Log, CUE-Sheed & NFO:

Click to open spoiler
Exact Audio Copy V1.0 beta 1 from 15. November 2010

EAC extraction logfile from 3. January 2011, 10:41

Foo Fighters / Skin And Bones EU (RCA 82876888572)

Used drive : HP DVD Writer 1070d Adapter: 2 ID: 0

Read mode : Secure
Utilize accurate stream : Yes
Defeat audio cache : Yes
Make use of C2 pointers : No

Read offset correction : 6
Overread into Lead-In and Lead-Out : No
Fill up missing offset samples with silence : Yes
Delete leading and trailing silent blocks : No
Null samples used in CRC calculations : Yes
Used interface : Native Win32 interface for Win NT & 2000
Gap handling : Appended to previous track

Used output format : User Defined Encoder
Selected bitrate : 896 kBit/s
Quality : High
Add ID3 tag : No
Command line compressor : C:\Program Files\Exact Audio Copy\flac.exe
Additional command line options : -8 -V -T “ARTIST=%a” -T “TITLE=%t” -T “ALBUM=%g” -T “DATE=%y” -T “TRACKNUMBER=%n” -T “GENRE=%m” -T “COMMENT=EAC FLAC -8” %s

TOC of the extracted CD

Track | Start | Length | Start sector | End sector
———————————————————
1 | 0:00.00 | 6:48.06 | 0 | 30605
2 | 6:48.06 | 5:56.57 | 30606 | 57362
3 | 12:44.63 | 5:18.52 | 57363 | 81264
4 | 18:03.40 | 3:19.52 | 81265 | 96241
5 | 21:23.17 | 4:51.06 | 96242 | 118072
6 | 26:14.23 | 4:34.49 | 118073 | 138671
7 | 30:48.72 | 4:55.20 | 138672 | 160816
8 | 35:44.17 | 3:01.62 | 160817 | 174453
9 | 38:46.04 | 3:26.16 | 174454 | 189919
10 | 42:12.20 | 4:00.72 | 189920 | 207991
11 | 46:13.17 | 5:51.34 | 207992 | 234350
12 | 52:04.51 | 5:25.25 | 234351 | 258750
13 | 57:30.01 | 4:01.55 | 258751 | 276880
14 | 61:31.56 | 5:02.47 | 276881 | 299577
15 | 66:34.28 | 6:37.14 | 299578 | 329366

Track 1

Filename G:\01 – Razor.wav

Pre-gap length 0:00:02.00

Peak level 100.0 %
Extraction speed 2.1 X
Track quality 99.9 %
Test CRC 3166FB5F
Copy CRC 3166FB5F
Accurately ripped (confidence 2) [872E2ED1]
Copy OK

Track 2

Filename G:\02 – Over And Out.wav

Peak level 100.0 %
Extraction speed 2.5 X
Track quality 100.0 %
Test CRC E8B27D45
Copy CRC E8B27D45
Accurately ripped (confidence 2) [65EBCE50]
Copy OK

Track 3

Filename G:\03 – Walking After You.wav

Peak level 100.0 %
Extraction speed 2.7 X
Track quality 100.0 %
Test CRC 0B9226E0
Copy CRC 0B9226E0
Accurately ripped (confidence 2) [F6266FE7]
Copy OK

Track 4

Filename G:\04 – Marigold.wav

Peak level 100.0 %
Extraction speed 2.7 X
Track quality 100.0 %
Test CRC 4D83E7F4
Copy CRC 4D83E7F4
Accurately ripped (confidence 2) [A12ECD36]
Copy OK

Track 5

Filename G:\05 – My Hero.wav

Peak level 100.0 %
Extraction speed 3.1 X
Track quality 100.0 %
Test CRC BE438878
Copy CRC BE438878
Accurately ripped (confidence 2) [360A35E0]
Copy OK

Track 6

Filename G:\06 – Next Year.wav

Peak level 100.0 %
Extraction speed 3.2 X
Track quality 100.0 %
Test CRC 6D3B0AF1
Copy CRC 6D3B0AF1
Accurately ripped (confidence 2) [2221FB21]
Copy OK

Track 7

Filename G:\07 – Another Round.wav

Peak level 100.0 %
Extraction speed 3.4 X
Track quality 100.0 %
Test CRC 868A9160
Copy CRC 868A9160
Accurately ripped (confidence 2) [E36D18DE]
Copy OK

Track 8

Filename G:\08 – Big Me.wav

Peak level 100.0 %
Extraction speed 3.3 X
Track quality 100.0 %
Test CRC 3A26AC9C
Copy CRC 3A26AC9C
Accurately ripped (confidence 2) [75D5F844]
Copy OK

Track 9

Filename G:\09 – Cold Day In The Sun.wav

Peak level 100.0 %
Extraction speed 2.5 X
Track quality 99.9 %
Test CRC 16FB0A7C
Copy CRC 16FB0A7C
Accurately ripped (confidence 2) [296F9A3B]
Copy OK

Track 10

Filename G:\10 – Skin And Bones.wav

Peak level 100.0 %
Extraction speed 3.7 X
Track quality 100.0 %
Test CRC 8CE4A7D0
Copy CRC 8CE4A7D0
Accurately ripped (confidence 2) [F45A8AF4]
Copy OK

Track 11

Filename G:\11 – February Stars.wav

Peak level 100.0 %
Extraction speed 4.0 X
Track quality 100.0 %
Test CRC AD1EA738
Copy CRC AD1EA738
Accurately ripped (confidence 2) [80525E54]
Copy OK

Track 12

Filename G:\12 – Times Like These.wav

Peak level 100.0 %
Extraction speed 4.1 X
Track quality 100.0 %
Test CRC 6D9BE3E7
Copy CRC 6D9BE3E7
Accurately ripped (confidence 2) [BCE63257]
Copy OK

Track 13

Filename G:\13 – Friend Of A Friend.wav

Peak level 63.9 %
Extraction speed 2.9 X
Track quality 99.9 %
Test CRC 7289B190
Copy CRC 7289B190
Accurately ripped (confidence 2) [8EAB619D]
Copy OK

Track 14

Filename G:\14 – Best Of You.wav

Peak level 99.2 %
Extraction speed 4.3 X
Track quality 100.0 %
Test CRC F0658FC2
Copy CRC F0658FC2
Accurately ripped (confidence 2) [0FA262BB]
Copy OK

Track 15

Filename G:\15 – Everlong.wav

Peak level 100.0 %
Extraction speed 3.5 X
Track quality 99.9 %
Test CRC 70CE9FFC
Copy CRC 70CE9FFC
Accurately ripped (confidence 2) [E382BA52]
Copy OK

All tracks accurately ripped

No errors occurred

End of status report

REM GENRE Rock
REM DATE 2006
REM DISCID E211270F
REM COMMENT “ExactAudioCopy v1.0b1”
PERFORMER “Foo Fighters”
TITLE “Skin And Bones EU (RCA 82876888572)”
FILE “01 – Razor.wav” WAVE
TRACK 01 AUDIO
TITLE “Razor”
PERFORMER “Foo Fighters”
INDEX 01 00:00:00
FILE “02 – Over And Out.wav” WAVE
TRACK 02 AUDIO
TITLE “Over And Out”
PERFORMER “Foo Fighters”
INDEX 01 00:00:00
FILE “03 – Walking After You.wav” WAVE
TRACK 03 AUDIO
TITLE “Walking After You”
PERFORMER “Foo Fighters”
INDEX 01 00:00:00
FILE “04 – Marigold.wav” WAVE
TRACK 04 AUDIO
TITLE “Marigold”
PERFORMER “Foo Fighters”
INDEX 01 00:00:00
FILE “05 – My Hero.wav” WAVE
TRACK 05 AUDIO
TITLE “My Hero”
PERFORMER “Foo Fighters”
INDEX 01 00:00:00
FILE “06 – Next Year.wav” WAVE
TRACK 06 AUDIO
TITLE “Next Year”
PERFORMER “Foo Fighters”
INDEX 01 00:00:00
FILE “07 – Another Round.wav” WAVE
TRACK 07 AUDIO
TITLE “Another Round”
PERFORMER “Foo Fighters”
INDEX 01 00:00:00
FILE “08 – Big Me.wav” WAVE
TRACK 08 AUDIO
TITLE “Big Me”
PERFORMER “Foo Fighters”
INDEX 01 00:00:00
FILE “09 – Cold Day In The Sun.wav” WAVE
TRACK 09 AUDIO
TITLE “Cold Day In The Sun”
PERFORMER “Foo Fighters”
INDEX 01 00:00:00
FILE “10 – Skin And Bones.wav” WAVE
TRACK 10 AUDIO
TITLE “Skin And Bones”
PERFORMER “Foo Fighters”
INDEX 01 00:00:00
FILE “11 – February Stars.wav” WAVE
TRACK 11 AUDIO
TITLE “February Stars”
PERFORMER “Foo Fighters”
INDEX 01 00:00:00
FILE “12 – Times Like These.wav” WAVE
TRACK 12 AUDIO
TITLE “Times Like These”
PERFORMER “Foo Fighters”
INDEX 01 00:00:00
FILE “13 – Friend Of A Friend.wav” WAVE
TRACK 13 AUDIO
TITLE “Friend Of A Friend”
PERFORMER “Foo Fighters”
INDEX 01 00:00:00
FILE “14 – Best Of You.wav” WAVE
TRACK 14 AUDIO
TITLE “Best Of You”
PERFORMER “Foo Fighters”
INDEX 01 00:00:00
FILE “15 – Everlong.wav” WAVE
TRACK 15 AUDIO
TITLE “Everlong”
PERFORMER “Foo Fighters”
INDEX 01 00:00:00


Spread the Download

Leave a Reply

Your email address will not be published. Required fields are marked *

Enter the text from the image below
 

This site uses Akismet to reduce spam. Learn how your comment data is processed.